  0
SECTION
  2
HEADER
  9
$ACADVER
  1
AC1015
  9
$ACADMAINTVER
 70
    20
  9
$DWGCODEPAGE
  3
ANSI_1252
  9
$INSBASE
 10
0.0
 20
0.0
 30
0.0
  9
$EXTMIN
 10
-18.42923387229126
 20
-13.68221163100833
 30
-0.0000000000000053
  9
$EXTMAX
 10
151.991564766193
 20
96.73126354322107
 30
0.0000000000000099
  9
$LIMMIN
 10
0.0
 20
0.0
  9
$LIMMAX
 10
17.0
 20
11.0
  9
$ORTHOMODE
 70
     1
  9
$REGENMODE
 70
     1
  9
$FILLMODE
 70
     1
  9
$QTEXTMODE
 70
     0
  9
$MIRRTEXT
 70
     0
  9
$LTSCALE
 40
1.0
  9
$ATTMODE
 70
     1
  9
$TEXTSIZE
 40
0.1
  9
$TRACEWID
 40
0.05
  9
$TEXTSTYLE
  7
ROMANS
  9
$CLAYER
  8
Dimensions & Text
  9
$CELTYPE
  6
ByLayer
  9
$CECOLOR
 62
   256
  9
$CELTSCALE
 40
1.0
  9
$DISPSILH
 70
     0
  9
$DIMSCALE
 40
1.0
  9
$DIMASZ
 40
0.12
  9
$DIMEXO
 40
0.05
  9
$DIMDLI
 40
0.5
  9
$DIMRND
 40
0.0
  9
$DIMDLE
 40
0.0
  9
$DIMEXE
 40
0.1
  9
$DIMTP
 40
0.1
  9
$DIMTM
 40
0.1
  9
$DIMTXT
 40
0.12
  9
$DIMCEN
 40
0.0
  9
$DIMTSZ
 40
0.0
  9
$DIMTOL
 70
     0
  9
$DIMLIM
 70
     0
  9
$DIMTIH
 70
     1
  9
$DIMTOH
 70
     1
  9
$DIMSE1
 70
     0
  9
$DIMSE2
 70
     0
  9
$DIMTAD
 70
     0
  9
$DIMZIN
 70
     7
  9
$DIMBLK
  1

  9
$DIMASO
 70
     1
  9
$DIMSHO
 70
     1
  9
$DIMPOST
  1

  9
$DIMAPOST
  1
mm
  9
$DIMALT
 70
     0
  9
$DIMALTD
 70
     2
  9
$DIMALTF
 40
25.4
  9
$DIMLFAC
 40
1.0
  9
$DIMTOFL
 70
     0
  9
$DIMTVP
 40
0.0
  9
$DIMTIX
 70
     0
  9
$DIMSOXD
 70
     0
  9
$DIMSAH
 70
     0
  9
$DIMBLK1
  1

  9
$DIMBLK2
  1

  9
$DIMSTYLE
  2
AM_ANSI
  9
$DIMCLRD
 70
   256
  9
$DIMCLRE
 70
   256
  9
$DIMCLRT
 70
   140
  9
$DIMTFAC
 40
0.71
  9
$DIMGAP
 40
0.06
  9
$DIMJUST
 70
     0
  9
$DIMSD1
 70
     0
  9
$DIMSD2
 70
     0
  9
$DIMTOLJ
 70
     1
  9
$DIMTZIN
 70
     7
  9
$DIMALTZ
 70
     0
  9
$DIMALTTZ
 70
     0
  9
$DIMUPT
 70
     0
  9
$DIMDEC
 70
     4
  9
$DIMTDEC
 70
     4
  9
$DIMALTU
 70
     2
  9
$DIMALTTD
 70
     4
  9
$DIMTXSTY
  7
STANDARD
  9
$DIMAUNIT
 70
     0
  9
$DIMADEC
 70
     0
  9
$DIMALTRND
 40
0.0
  9
$DIMAZIN
 70
     2
  9
$DIMDSEP
 70
    46
  9
$DIMATFIT
 70
     3
  9
$DIMFRAC
 70
     0
  9
$DIMLDRBLK
  1

  9
$DIMLUNIT
 70
     2
  9
$DIMLWD
 70
    -1
  9
$DIMLWE
 70
    -1
  9
$DIMTMOVE
 70
     0
  9
$LUNITS
 70
     4
  9
$LUPREC
 70
     4
  9
$SKETCHINC
 40
0.1
  9
$FILLETRAD
 40
0.125
  9
$AUNITS
 70
     0
  9
$AUPREC
 70
     0
  9
$MENU
  1
.
  9
$ELEVATION
 40
0.0
  9
$PELEVATION
 40
0.0
  9
$THICKNESS
 40
0.0
  9
$LIMCHECK
 70
     0
  9
$CHAMFERA
 40
0.125
  9
$CHAMFERB
 40
0.125
  9
$CHAMFERC
 40
1.0
  9
$CHAMFERD
 40
0.0
  9
$SKPOLY
 70
     0
  9
$TDCREATE
 40
2455874.839380880
  9
$TDUCREATE
 40
2455875.047714213
  9
$TDUPDATE
 40
2455885.725533044
  9
$TDUUPDATE
 40
2455885.933866378
  9
$TDINDWG
 40
0.0701181944
  9
$TDUSRTIMER
 40
0.0700858796
  9
$USRTIMER
 70
     1
  9
$ANGBASE
 50
0.0
  9
$ANGDIR
 70
     0
  9
$PDMODE
 70
     0
  9
$PDSIZE
 40
0.0
  9
$PLINEWID
 40
0.0
  9
$SPLFRAME
 70
     0
  9
$SPLINETYPE
 70
     6
  9
$SPLINESEGS
 70
     8
  9
$HANDSEED
  5
1B0A
  9
$SURFTAB1
 70
     6
  9
$SURFTAB2
 70
     6
  9
$SURFTYPE
 70
     6
  9
$SURFU
 70
     6
  9
$SURFV
 70
     6
  9
$UCSBASE
  2

  9
$UCSNAME
  2

  9
$UCSORG
 10
0.0
 20
0.0
 30
0.0
  9
$UCSXDIR
 10
1.0
 20
0.0
 30
0.0
  9
$UCSYDIR
 10
0.0
 20
1.0
 30
0.0
  9
$UCSORTHOREF
  2

  9
$UCSORTHOVIEW
 70
     0
  9
$UCSORGTOP
 10
0.0
 20
0.0
 30
0.0
  9
$UCSORGBOTTOM
 10
0.0
 20
0.0
 30
0.0
  9
$UCSORGLEFT
 10
0.0
 20
0.0
 30
0.0
  9
$UCSORGRIGHT
 10
0.0
 20
0.0
 30
0.0
  9
$UCSORGFRONT
 10
0.0
 20
0.0
 30
0.0
  9
$UCSORGBACK
 10
0.0
 20
0.0
 30
0.0
  9
$PUCSBASE
  2

  9
$PUCSNAME
  2

  9
$PUCSORG
 10
0.0
 20
0.0
 30
0.0
  9
$PUCSXDIR
 10
1.0
 20
0.0
 30
0.0
  9
$PUCSYDIR
 10
0.0
 20
1.0
 30
0.0
  9
$PUCSORTHOREF
  2

  9
$PUCSORTHOVIEW
 70
     0
  9
$PUCSORGTOP
 10
0.0
 20
0.0
 30
0.0
  9
$PUCSORGBOTTOM
 10
0.0
 20
0.0
 30
0.0
  9
$PUCSORGLEFT
 10
0.0
 20
0.0
 30
0.0
  9
$PUCSORGRIGHT
 10
0.0
 20
0.0
 30
0.0
  9
$PUCSORGFRONT
 10
0.0
 20
0.0
 30
0.0
  9
$PUCSORGBACK
 10
0.0
 20
0.0
 30
0.0
  9
$USERI1
 70
     0
  9
$USERI2
 70
     0
  9
$USERI3
 70
     0
  9
$USERI4
 70
     0
  9
$USERI5
 70
     0
  9
$USERR1
 40
0.0
  9
$USERR2
 40
0.0
  9
$USERR3
 40
0.0
  9
$USERR4
 40
0.0
  9
$USERR5
 40
0.0
  9
$WORLDVIEW
 70
     1
  9
$SHADEDGE
 70
     3
  9
$SHADEDIF
 70
    70
  9
$TILEMODE
 70
     1
  9
$MAXACTVP
 70
    64
  9
$PINSBASE
 10
0.0
 20
0.0
 30
0.0
  9
$PLIMCHECK
 70
     0
  9
$PEXTMIN
 10
1.000000000000000E+20
 20
1.000000000000000E+20
 30
1.000000000000000E+20
  9
$PEXTMAX
 10
-1.000000000000000E+20
 20
-1.000000000000000E+20
 30
-1.000000000000000E+20
  9
$PLIMMIN
 10
0.0
 20
0.0
  9
$PLIMMAX
 10
12.0
 20
9.0
  9
$UNITMODE
 70
     0
  9
$VISRETAIN
 70
     1
  9
$PLINEGEN
 70
     0
  9
$PSLTSCALE
 70
     1
  9
$TREEDEPTH
 70
  3020
  9
$CMLSTYLE
  2
Standard
  9
$CMLJUST
 70
     0
  9
$CMLSCALE
 40
1.0
  9
$PROXYGRAPHICS
 70
     1
  9
$MEASUREMENT
 70
     0
  9
$CELWEIGHT
370
    -1
  9
$ENDCAPS
280
     0
  9
$JOINSTYLE
280
     0
  9
$LWDISPLAY
290
     0
  9
$INSUNITS
 70
     1
  9
$HYPERLINKBASE
  1

  9
$STYLESHEET
  1
monochrome.ctb
  9
$XEDIT
290
     1
  9
$CEPSNTYPE
380
     0
  9
$PSTYLEMODE
290
     1
  9
$FINGERPRINTGUID
  2
{617A446B-6561-4495-8D6C-BE19A9FB85E3}
  9
$VERSIONGUID
  2
{D09E2968-DFC2-4202-A274-446D3D94E69B}
  9
$EXTNAMES
290
     1
  9
$PSVPSCALE
 40
0.0
  9
$OLESTARTUP
290
     0
  0
ENDSEC
  0
SECTION
  2
CLASSES
  0
CLASS
  1
ACDBDICTIONARYWDFLT
  2
AcDbDictionaryWithDefault
  3
ObjectDBX Classes
 90
        0
280
     0
281
     0
  0
CLASS
  1
ACDBPLACEHOLDER
  2
AcDbPlaceHolder
  3
ObjectDBX Classes
 90
        0
280
     0
281
     0
  0
CLASS
  1
LAYOUT
  2
AcDbLayout
  3
ObjectDBX Classes
 90
        0
280
     0
281
     0
  0
CLASS
  1
ACME_DOCUMENT
  2
AcMeDbDoc
  3
AcMeServices
 90
     1024
280
     0
281
     0
  0
CLASS
  1
AMGSETTINGSOBJ
  2
AmgSettingsObj
  3
"AcadM|Product Description: AutoCAD Mechanical|Company: Autodesk, Inc."
 90
     1024
280
     0
281
     0
  0
CLASS
  1
ACMESCOPE
  2
AcMeScope
  3
AcMeServices
 90
     1024
280
     0
281
     0
  0
CLASS
  1
ACMECOMMANDHISTORY
  2
AcMeCommandHistory
  3
AcMeServices
 90
     1024
280
     0
281
     0
  0
CLASS
  1
ACIMSYSVARMAN
  2
AcImSysVarManager
  3
AcMeServices
 90
     1024
280
     0
281
     0
  0
CLASS
  1
ACIMREALSYSVAR
  2
AcImRealSysVar
  3
AcMeServices
 90
     1024
280
     0
281
     0
  0
CLASS
  1
ACIMINTSYSVAR
  2
AcImIntSysVar
  3
AcMeServices
 90
     1024
280
     0
281
     0
  0
CLASS
  1
ACMEDRAWINGMAN
  2
AcMeDrawingMan
  3
AcMeServices
 90
     1024
280
     0
281
     0
  0
CLASS
  1
ACMEVIEW
  2
AcMeView
  3
AcMeServices
 90
     1024
280
     0
281
     0
  0
CLASS
  1
ACDBENTITYCACHE
  2
AcMeEntityCache
  3
AcMeServices
 90
     1024
280
     0
281
     0
  0
CLASS
  1
GSMANAGER
  2
AcMeGSManager
  3
AcMeServices
 90
    33792
280
     0
281
     0
  0
CLASS
  1
AMDTINTERNALREACTOR
  2
AmdtInternalReactor
  3
AcMeServices
 90
     1024
280
     0
281
     0
  0
CLASS
  1
ACMESTATEMGR
  2
AcMeStateMgr
  3
AcMeServices
 90
     1024
280
     0
281
     0
  0
CLASS
  1
ACGREFMASTER
  2
AcGrefMaster
  3
AcAttribServices
 90
     1024
280
     0
281
     0
  0
CLASS
  1
ACME_DATABASE
  2
AcMeDbDatabase
  3
AcMeServices
 90
     1024
280
     0
281
     0
  0
CLASS
  1
ACRFINSADJUSTERMGR
  2
AcRfInsAdjusterMgr
  3
AcMeServices
 90
     1024
280
     0
281
     0
  0
CLASS
  1
ACGREFACADMASTER
  2
AcGrefacadMaster
  3
AcGrefServices
 90
     1024
280
     0
281
     0
  0
CLASS
  1
AMIMASTER
  2
AmiMaster
  3
AmiServices
 90
     1024
280
     0
281
     0
  0
CLASS
  1
ACMDATADICTIONARY
  2
AcmDataDictionary
  3
"AcmSymBB|Product Description: AutoCAD Mechanical|Company: Autodesk, Inc."
 90
     1024
280
     0
281
     0
  0
CLASS
  1
ACMDATAENTRYBLOCK
  2
AcmDataEntryBlock
  3
AcmSymBB|Product Description: AutoCAD Mechanical|Company: Autodesk, Inc.
 90
    33792
280
     0
281
     0
  0
CLASS
  1
ACIMSTRSYSVAR
  2
AcImStrSysVar
  3
AcMeServices
 90
     1024
280
     0
281
     0
  0
CLASS
  1
ACMSTANDARDANSI
  2
AcmStandardANSI
  3
"Amdt_StdImp|Product Description: AutoCAD Mechanical|Company: Autodesk, Inc."
 90
     1024
280
     0
281
     0
  0
CLASS
  1
AMGOBJPROPCFG
  2
AmgObjPropCfg
  3
"AmgLay|Product Description: AutoCAD Mechanical|Company: Autodesk, Inc."
 90
     1025
280
     0
281
     0
  0
CLASS
  1
ACMSURFSTANDARDANSI
  2
AcmSurfTextStdANSI
  3
"Amdt_StdImp|Product Description: AutoCAD Mechanical|Company: Autodesk, Inc."
 90
     1024
280
     0
281
     0
  0
CLASS
  1
ACMFCFSTANDARDANSI
  2
AcmFCFStdANSI
  3
"Amdt_StdImp|Product Description: AutoCAD Mechanical|Company: Autodesk, Inc."
 90
     1024
280
     0
281
     0
  0
CLASS
  1
ACMWELDSTANDARDANSI
  2
AcmWeldingStdANSI
  3
"Amdt_StdImp|Product Description: AutoCAD Mechanical|Company: Autodesk, Inc."
 90
     1024
280
     0
281
     0
  0
CLASS
  1
ACMIDSTANDARDANSI
  2
AcmIdStdANSI
  3
"Amdt_StdImp|Product Description: AutoCAD Mechanical|Company: Autodesk, Inc."
 90
     1024
280
     0
281
     0
  0
CLASS
  1
ACMDATUMSTANDARDANSI
  2
AcmDatumStdANSI
  3
"Amdt_StdImp|Product Description: AutoCAD Mechanical|Company: Autodesk, Inc."
 90
     1024
280
     0
281
     0
  0
CLASS
  1
ACMBOMSTANDARDANSI
  2
AcmBOMStdANSI
  3
"Amdt_StdImp|Product Description: AutoCAD Mechanical|Company: Autodesk, Inc."
 90
     1024
280
     0
281
     0
  0
CLASS
  1
ACMDETAILSTANDARDANSI
  2
AmdtDetailSymStdANSI
  3
"Amdt_StdImp|Product Description: AutoCAD Mechanical|Company: Autodesk, Inc."
 90
     1024
280
     0
281
     0
  0
CLASS
  1
ACMSECTIONSTANDARDANSI
  2
AmdtSectionSymStdANSI
  3
"Amdt_StdImp|Product Description: AutoCAD Mechanical|Company: Autodesk, Inc."
 90
     1024
280
     0
281
     0
  0
CLASS
  1
ACMCENTERLINESTANDARDANSI
  2
AmdtCenterLineStdANSI
  3
"Amdt_StdImp|Product Description: AutoCAD Mechanical|Company: Autodesk, Inc."
 90
     1024
280
     0
281
     0
  0
CLASS
  1
ACMNOTESTANDARDANSI
  2
AmdtNoteStdANSI
  3
"Amdt_StdImp|Product Description: AutoCAD Mechanical|Company: Autodesk, Inc."
 90
     1024
280
     0
281
     0
  0
CLASS
  1
ACAMGLAYSTD
  2
AcAmgLayStd
  3
"AmgLay|Product Description: AutoCAD Mechanical|Company: Autodesk, Inc."
 90
     1024
280
     0
281
     0
  0
CLASS
  1
ACAMGDIMSTD
  2
AcAmgDimStd
  3
"AmgDim|Product Description: AutoCAD Mechanical|Company: Autodesk, Inc."
 90
     1024
280
     0
281
     0
  0
CLASS
  1
ACAMGHOLECHARTSTDANSI
  2
AcAmgHoleChartStdANSI
  3
AmgDim|Product Description: AutoCAD Mechanical|Company: Autodesk, Inc.
 90
     1024
280
     0
281
     0
  0
CLASS
  1
ACAMGTITLESTD
  2
AcAmgTitleStd
  3
"AmgTitle|Product Description: AutoCAD Mechanical|Company: Autodesk, Inc."
 90
     4095
280
     0
281
     0
  0
CLASS
  1
LAYER_INDEX
  2
AcDbLayerIndex
  3
ObjectDBX Classes
 90
    32768
280
     0
281
     0
  0
CLASS
  1
IDBUFFER
  2
AcDbIdBuffer
  3
ObjectDBX Classes
 90
    32768
280
     0
281
     0
  0
CLASS
  1
DICTIONARYVAR
  2
AcDbDictionaryVar
  3
ObjectDBX Classes
 90
        0
280
     0
281
     0
  0
CLASS
  1
AM_DRAWING_MGR
  2
AcDmDwgMgr
  3
AcMechDwgViewMgmt
 90
     1024
280
     0
281
     0
  0
CLASS
  1
AM_DWG_DOCUMENT
  2
AcDmDwgDocument
  3
AcMechDwgViewMgmt
 90
     1024
280
     0
281
     0
  0
CLASS
  1
AM_DWG_SHEET
  2
AcDmSheet
  3
AcMechDwgViewMgmt
 90
     1024
280
     0
281
     0
  0
CLASS
  1
AM_VIEWDIMPARMAP
  2
AcDmViewDimParMap
  3
AcMechDwgViewMgmt
 90
     1024
280
     0
281
     0
  0
CLASS
  1
AM_DWGMGR_NAME
  2
AcDmDwgMgrName
  3
AcMechDwgViewMgmt
 90
     1024
280
     0
281
     0
  0
CLASS
  1
AMDTMENUSTATEMGR
  2
AmdtMenuStateMgr
  3
McadcomServices
 90
     1024
280
     0
281
     0
  0
CLASS
  1
AMDTMCOMMENUSTATE
  2
AmdtMcomMenuState
  3
McadcomServices
 90
     1024
280
     0
281
     0
  0
CLASS
  1
MAPIAMMOUDLE
  2
MApiAmModule
  3
MApiAmServices
 90
     1024
280
     0
281
     0
  0
CLASS
  1
AMDTADMENUSTATE
  2
AmdtAdMenuState
  3
DesignerServices
 90
     1024
280
     0
281
     0
  0
CLASS
  1
ADAPPL
  2
AcAdAppl
  3
DesignerServices
 90
     1024
280
     0
281
     0
  0
CLASS
  1
DEPMGR
  2
AcAdDepMgr
  3
DesignerServices
 90
     1024
280
     0
281
     0
  0
CLASS
  1
PARAMMGR
  2
AcAdParamMgr
  3
DesignerServices
 90
     1024
280
     0
281
     0
  0
CLASS
  1
PARAMSCOPE
  2
AcAdParamScope
  3
DesignerServices
 90
     1024
280
     0
281
     0
  0
CLASS
  1
NAMEDAPPL
  2
AcAdNamedAppl
  3
DesignerServices
 90
     1024
280
     0
281
     0
  0
CLASS
  1
AMDTDMMENUSTATE
  2
AmdtDmMenuState
  3
AcMechDwgViewMgmt
 90
     1024
280
     0
281
     0
  0
CLASS
  1
AMDTAMMENUSTATE
  2
AmdtAmMenuState
  3
DesignerAssemblies
 90
     1024
280
     0
281
     0
  0
CLASS
  1
ACAMPROJECT
  2
AcAmProject
  3
DesignerAssemblies
 90
     1024
280
     0
281
     0
  0
CLASS
  1
ACAMGRCOMPDEF
  2
AcAmGrCompDef
  3
DesignerAssemblies
 90
     1024
280
     0
281
     0
  0
CLASS
  1
ACCMCONTEXT
  2
AcCmContext
  3
DesignerAssemblies
 90
    33792
280
     0
281
     0
  0
CLASS
  1
ACAMCOMPDEF
  2
AcAmCompDef
  3
DesignerAssemblies
 90
     1024
280
     0
281
     0
  0
CLASS
  1
ACAMCOMPDEFMGR
  2
AcAmCompDefMgr
  3
DesignerAssemblies
 90
     1024
280
     0
281
     0
  0
CLASS
  1
AMCONTEXTMGR
  2
AcAmContextMgr
  3
DesignerAssemblies
 90
     1024
280
     0
281
     0
  0
CLASS
  1
ACAMCONTEXTMODELER
  2
AcAmContextModeler
  3
DesignerAssemblies
 90
     1024
280
     0
281
     0
  0
CLASS
  1
ACMTHREADLINESTANDARDANSI
  2
AmdtThreadLineStdANSI
  3
"Amdt_StdImp|Product Description: AutoCAD Mechanical|Company: Autodesk, Inc."
 90
     1024
280
     0
281
     0
  0
CLASS
  1
CATALOGSTATE
  2
AcAmCatalogState
  3
DesignerAssemblies
 90
     1024
280
     0
281
     0
  0
CLASS
  1
ACAMGRCOMPDEFSET
  2
AcAmGrCompDefSet
  3
DesignerAssemblies
 90
     1024
280
     0
281
     0
  0
CLASS
  1
AMDTBROWSERDBTAB
  2
AmdtBrowserDbTab
  3
McadcomServices
 90
     1024
280
     0
281
     0
  0
CLASS
  1
CBROWSERAPPOBJECT
  2
CBrowserAppObject
  3
McadcomServices
 90
     1024
280
     0
281
     0
  0
CLASS
  1
DM_PLACEHOLDER
  2
AcDmSelsetPlaceholder
  3
AcMechDwgViewMgmt
 90
     1024
280
     0
281
     0
  0
CLASS
  1
TABLESTYLE
  2
AcDbTableStyle
  3
ObjectDBX Classes
 90
     4095
280
     0
281
     0
  0
CLASS
  1
AMDTNOTETEMPLATEDB
  2
AmdtNoteTemplateDB
  3
AcmSymBB|Product Description: AutoCAD Mechanical|Company: Autodesk, Inc.
 90
     1024
280
     0
281
     0
  0
CLASS
  1
MATERIAL
  2
AcDbMaterial
  3
ObjectDBX Classes
 90
     1153
280
     0
281
     0
  0
CLASS
  1
VISUALSTYLE
  2
AcDbVisualStyle
  3
ObjectDBX Classes
 90
     4095
280
     0
281
     0
  0
CLASS
  1
ACRFATTGENMGR
  2
AcRfAttGeneralMgr
  3
AcAttribServices
 90
    33792
280
     0
281
     0
  0
CLASS
  1
ACRFOBJATTMGR
  2
AcRfObjAttGroupMgr
  3
AcAttribServices
 90
    33792
280
     0
281
     0
  0
CLASS
  1
ACRFMCADAPIATTHOLDER
  2
AcRfMCADAPIAttHolder
  3
AcAttribServices
 90
    33792
280
     0
281
     0
  0
CLASS
  1
AMDTSYSATTR
  2
AmdtSystemAttribute
  3
AcAttribServices
 90
    33792
280
     0
281
     0
  0
CLASS
  1
ACMTAPERSTANDARDANSI
  2
AcmTaperStdANSI
  3
"Amdt_StdImp|Product Description: AutoCAD Mechanical|Company: Autodesk, Inc."
 90
     1024
280
     0
281
     0
  0
CLASS
  1
CAMSSTRUCTBTNSTATE
  2
StructBtnState
  3
DesignerAssemblies
 90
    33792
280
     0
281
     0
  0
CLASS
  1
SCALE
  2
AcDbScale
  3
ObjectDBX Classes
 90
     1153
280
     0
281
     0
  0
CLASS
  1
MLEADERSTYLE
  2
AcDbMLeaderStyle
  3
ACDB_MLEADERSTYLE_CLASS
 90
     4095
280
     0
281
     0
  0
CLASS
  1
ACMANOOTATIONVIEWSTANDARDANSI
  2
AmdtAnViewStdANSI
  3
"Amdt_StdImp|Product Description: AutoCAD Mechanical|Company: Autodesk, Inc."
 90
     1024
280
     0
281
     0
  0
CLASS
  1
CELLSTYLEMAP
  2
AcDbCellStyleMap
  3
ObjectDBX Classes
 90
     1152
280
     0
281
     0
  0
CLASS
  1
EXACXREFPANELOBJECT
  2
ExAcXREFPanelObject
  3
EXAC_ESW
 90
    33793
280
     0
281
     0
  0
CLASS
  1
NPOCOLLECTION
  2
AcDbImpNonPersistentObjectsCollection
  3
ObjectDBX Classes
 90
    33921
280
     0
281
     0
  0
CLASS
  1
ACAMGFILTERDAT
  2
AcAmgFilterDat
  3
"AcadM|Product Description: AutoCAD Mechanical|Company: Autodesk, Inc."
 90
    33792
280
     0
281
     0
  0
CLASS
  1
SORTENTSTABLE
  2
AcDbSortentsTable
  3
ObjectDBX Classes
 90
        0
280
     0
281
     0
  0
CLASS
  1
DIMASSOC
  2
AcDbDimAssoc
  3
"AcDbDimAssoc|Product Desc:     AcDim ARX App For Dimension|Company:          Autodesk, Inc.|WEB Address:      www.autodesk.com"
 90
        0
280
     0
281
     0
  0
CLASS
  1
RASTERVARIABLES
  2
AcDbRasterVariables
  3
ISM
 90
        0
280
     0
281
     0
  0
CLASS
  1
IMAGEDEF
  2
AcDbRasterImageDef
  3
ISM
 90
        0
280
     0
281
     0
  0
CLASS
  1
IMAGEDEF_REACTOR
  2
AcDbRasterImageDefReactor
  3
ISM
 90
    32769
280
     0
281
     0
  0
CLASS
  1
IMAGE
  2
AcDbRasterImage
  3
ISM
 90
    34943
280
     0
281
     1
  0
ENDSEC
  0
SECTION
  2
TABLES
  0
TABLE
  2
VPORT
  5
8
102
{ACAD_XDICTIONARY
360
DD2
102
}
330
0
100
AcDbSymbolTable
 70
     1
  0
VPORT
  5
291
330
8
100
AcDbSymbolTableRecord
100
AcDbViewportTableRecord
  2
*Active
 70
     0
 10
0.0
 20
0.0
 11
1.0
 21
1.0
 12
66.78116544695086
 22
41.52452595610637
 13
0.0
 23
0.0
 14
0.125
 24
0.125
 15
1.0
 25
1.0
 16
0.0
 26
0.0
 36
1.0
 17
0.0
 27
0.0
 37
0.0
 40
114.5908304431039
 41
1.494884910485933
 42
50.0
 43
0.0
 44
0.0
 50
0.0
 51
0.0
 71
     0
 72
   100
 73
     1
 74
     3
 75
     0
 76
     0
 77
     0
 78
     0
281
     0
 65
     1
110
0.0
120
0.0
130
0.0
111
1.0
121
0.0
131
0.0
112
0.0
122
1.0
132
0.0
 79
     0
146
0.0
  0
ENDTAB
  0
TABLE
  2
LTYPE
  5
5
330
0
100
AcDbSymbolTable
 70
    16
  0
LTYPE
  5
14
330
5
100
AcDbSymbolTableRecord
100
AcDbLinetypeTableRecord
  2
ByBlock
 70
     0
  3

 72
    65
 73
     0
 40
0.0
  0
LTYPE
  5
15
330
5
100
AcDbSymbolTableRecord
100
AcDbLinetypeTableRecord
  2
ByLayer
 70
     0
  3

 72
    65
 73
     0
 40
0.0
  0
LTYPE
  5
16
330
5
100
AcDbSymbolTableRecord
100
AcDbLinetypeTableRecord
  2
Continuous
 70
     0
  3
Solid line
 72
    65
 73
     0
 40
0.0
  0
LTYPE
  5
6F
330
5
100
AcDbSymbolTableRecord
100
AcDbLinetypeTableRecord
  2
Amconstr
 70
     0
  3
_______________________
 72
    65
 73
     2
 40
9999.0
 49
9999.0
 74
     0
 49
0.0
 74
     0
  0
LTYPE
  5
75
330
5
100
AcDbSymbolTableRecord
100
AcDbLinetypeTableRecord
  2
HIDDEN
 70
     0
  3
Hidden __ __ __ __ __ __ __ __ __ __ __ __ __ _
 72
    65
 73
     2
 40
0.375
 49
0.25
 74
     0
 49
-0.125
 74
     0
  0
LTYPE
  5
76
330
5
100
AcDbSymbolTableRecord
100
AcDbLinetypeTableRecord
  2
CENTER
 70
     0
  3
Center ____ _ ____ _ ____ _ ____ _ ____ _ ____
 72
    65
 73
     4
 40
2.0
 49
1.25
 74
     0
 49
-0.25
 74
     0
 49
0.25
 74
     0
 49
-0.25
 74
     0
  0
LTYPE
  5
77
330
5
100
AcDbSymbolTableRecord
100
AcDbLinetypeTableRecord
  2
PHANTOM2
 70
     0
  3
Phantom (.5x) ___ _ _ ___ _ _ ___ _ _ ___ _ _
 72
    65
 73
     6
 40
1.25
 49
0.625
 74
     0
 49
-0.125
 74
     0
 49
0.125
 74
     0
 49
-0.125
 74
     0
 49
0.125
 74
     0
 49
-0.125
 74
     0
  0
LTYPE
  5
78
330
5
100
AcDbSymbolTableRecord
100
AcDbLinetypeTableRecord
  2
CENTER2
 70
     0
  3
Center (.5x) ___ _ ___ _ ___ _ ___ _ ___ _ ___
 72
    65
 73
     4
 40
1.125
 49
0.75
 74
     0
 49
-0.125
 74
     0
 49
0.125
 74
     0
 49
-0.125
 74
     0
  0
LTYPE
  5
79
330
5
100
AcDbSymbolTableRecord
100
AcDbLinetypeTableRecord
  2
HIDDEN2
 70
     0
  3
Hidden (.5x) _ _ _ _ _ _ _ _ _ _ _ _ _ _ _ _ _
 72
    65
 73
     2
 40
0.1875
 49
0.125
 74
     0
 49
-0.0625
 74
     0
  0
LTYPE
  5
7A
330
5
100
AcDbSymbolTableRecord
100
AcDbLinetypeTableRecord
  2
Amzigzag2
 70
     0
  3
/\/-/\/-/\/-/\/-/\/-/\/
 72
    65
 73
     2
 40
0.4401
 49
0.0001
 74
     4
 75
   136
340
254
 46
0.0016
 50
0.0
 44
0.0
 45
0.0
 49
-0.4400000000000001
 74
     0
  0
LTYPE
  5
87
330
5
100
AcDbSymbolTableRecord
100
AcDbLinetypeTableRecord
  2
ACANSTGB
 70
     0
  3
__ . . __ . .
 72
    65
 73
     6
 40
0.35433070866
 49
0.15748031496
 74
     0
 49
-0.03937007874
 74
     0
 49
0.03937007874
 74
     0
 49
-0.03937007874
 74
     0
 49
0.03937007874
 74
     0
 49
-0.03937007874
 74
     0
  0
LTYPE
  5
88
330
5
100
AcDbSymbolTableRecord
100
AcDbLinetypeTableRecord
  2
ACANSTGL
 70
     0
  3
_ _ _ _ _
 72
    65
 73
     2
 40
0.11811023622
 49
0.07874015748
 74
     0
 49
-0.03937007874
 74
     0
  0
ENDTAB
  0
TABLE
  2
LAYER
  5
2
102
{ACAD_XDICTIONARY
360
8FD
102
}
330
0
100
AcDbSymbolTable
 70
    10
  0
LAYER
  5
10
102
{ACAD_XDICTIONARY
360
3DC
102
}
330
2
100
AcDbSymbolTableRecord
100
AcDbLayerTableRecord
  2
0
 70
     0
 62
     7
  6
Continuous
370
    -3
390
F
  0
LAYER
  5
3D2
102
{ACAD_XDICTIONARY
360
3DE
102
}
330
2
100
AcDbSymbolTableRecord
100
AcDbLayerTableRecord
  2
Wood
 70
     0
 62
   246
  6
Continuous
370
    -3
390
F
1001
AcAecLayerStandard
1000

1000

  0
LAYER
  5
3D4
102
{ACAD_XDICTIONARY
360
3E0
102
}
330
2
100
AcDbSymbolTableRecord
100
AcDbLayerTableRecord
  2
Concrete
 70
     0
 62
     1
  6
Continuous
370
    15
390
F
1001
AcAecLayerStandard
1000

1000

  0
LAYER
  5
3D5
102
{ACAD_XDICTIONARY
360
3E2
102
}
330
2
100
AcDbSymbolTableRecord
100
AcDbLayerTableRecord
  2
Column
 70
     0
 62
     5
  6
Continuous
370
    30
390
F
1001
AcAecLayerStandard
1000

1000

  0
LAYER
  5
3D6
102
{ACAD_XDICTIONARY
360
3E4
102
}
330
2
100
AcDbSymbolTableRecord
100
AcDbLayerTableRecord
  2
Dimensions & Text
 70
     0
 62
     3
  6
Continuous
370
    15
390
F
1001
AcAecLayerStandard
1000

1000

  0
LAYER
  5
477
330
2
100
AcDbSymbolTableRecord
100
AcDbLayerTableRecord
  2
Misc
 70
     0
 62
     7
  6
Continuous
370
    -3
390
F
1001
AcAecLayerStandard
1000

1000

  0
LAYER
  5
488
330
2
100
AcDbSymbolTableRecord
100
AcDbLayerTableRecord
  2
Defpoints
 70
     0
 62
     7
  6
Continuous
290
     0
370
    -3
390
F
  0
LAYER
  5
91B
330
2
100
AcDbSymbolTableRecord
100
AcDbLayerTableRecord
  2
Plates
 70
     0
 62
     2
  6
Continuous
370
    30
390
F
1001
AcAecLayerStandard
1000

1000

  0
LAYER
  5
CA5
102
{ACAD_XDICTIONARY
360
CA6
102
}
330
2
100
AcDbSymbolTableRecord
100
AcDbLayerTableRecord
  2
Border
 70
     0
 62
     5
  6
Continuous
370
    -3
390
F
  0
LAYER
  5
CA7
102
{ACAD_XDICTIONARY
360
CA8
102
}
330
2
100
AcDbSymbolTableRecord
100
AcDbLayerTableRecord
  2
Text
 70
     0
 62
     3
  6
Continuous
370
    -3
390
F
  0
ENDTAB
  0
TABLE
  2
STYLE
  5
3
330
0
100
AcDbSymbolTable
 70
     6
  0
STYLE
  5
11
330
3
100
AcDbSymbolTableRecord
100
AcDbTextStyleTableRecord
  2
STANDARD
 70
     0
 40
0.0
 41
1.0
 50
0.0
 71
     0
 42
1.719545593417564
  3
cityb___.ttf
  4

1001
ACAD
1000
CityBlueprint
1071
      514
  0
STYLE
  5
86
330
3
100
AcDbSymbolTableRecord
100
AcDbTextStyleTableRecord
  2
ACANSGDT
 70
     0
 40
0.0
 41
1.0
 50
0.0
 71
     0
 42
0.2
  3
amgdt.shx
  4

  0
STYLE
  5
254
330
3
100
AcDbSymbolTableRecord
100
AcDbTextStyleTableRecord
  2

 70
     1
 40
0.0
 41
1.0
 50
0.0
 71
     0
 42
0.2
  3
genltshp.shx
  4

  0
STYLE
  5
CAB
330
3
100
AcDbSymbolTableRecord
100
AcDbTextStyleTableRecord
  2
ROMANS
 70
     0
 40
0.0
 41
1.0
 50
0.0
 71
     0
 42
0.1
  3
arial.ttf
  4

1001
ACAD
1000
Arial
1071
       34
  0
ENDTAB
  0
TABLE
  2
VIEW
  5
6
330
0
100
AcDbSymbolTable
 70
     0
  0
ENDTAB
  0
TABLE
  2
UCS
  5
7
330
0
100
AcDbSymbolTable
 70
     0
  0
ENDTAB
  0
TABLE
  2
APPID
  5
9
330
0
100
AcDbSymbolTable
 70
    23
  0
APPID
  5
12
330
9
100
AcDbSymbolTableRecord
100
AcDbRegAppTableRecord
  2
ACAD
 70
     0
  0
APPID
  5
4E
330
9
100
AcDbSymbolTableRecord
100
AcDbRegAppTableRecord
  2
MCAD_NO_VIS
 70
     0
  0
APPID
  5
4F
330
9
100
AcDbSymbolTableRecord
100
AcDbRegAppTableRecord
  2
ACAD_TEMP_GRAPHIC
 70
     0
  0
APPID
  5
60
330
9
100
AcDbSymbolTableRecord
100
AcDbRegAppTableRecord
  2
ACATTRIBSERVICES
 70
     0
  0
APPID
  5
F7
330
9
100
AcDbSymbolTableRecord
100
AcDbRegAppTableRecord
  2
AD_DRAW
 70
     0
  0
APPID
  5
115
330
9
100
AcDbSymbolTableRecord
100
AcDbRegAppTableRecord
  2
DESIGNERASSEMBLIES
 70
     0
  0
APPID
  5
11A
330
9
100
AcDbSymbolTableRecord
100
AcDbRegAppTableRecord
  2
ACADM_DIM_EDIT
 70
     0
  0
APPID
  5
11B
330
9
100
AcDbSymbolTableRecord
100
AcDbRegAppTableRecord
  2
AMDT_DM_ADJ
 70
     0
  0
APPID
  5
1D3
330
9
100
AcDbSymbolTableRecord
100
AcDbRegAppTableRecord
  2
ACAD_DSTYLE_DIMARC_LENGTH_SYMBOL
 70
     0
  0
APPID
  5
1D4
330
9
100
AcDbSymbolTableRecord
100
AcDbRegAppTableRecord
  2
ACAD_DSTYLE_DIMJOGGED_JOGANGLE_SYMBOL
 70
     0
  0
APPID
  5
2EE
330
9
100
AcDbSymbolTableRecord
100
AcDbRegAppTableRecord
  2
ACAD_MLEADERVER
 70
     0
  0
APPID
  5
38D
330
9
100
AcDbSymbolTableRecord
100
AcDbRegAppTableRecord
  2
ACAD_DSTYLE_DIMJAG
 70
     0
  0
APPID
  5
38E
330
9
100
AcDbSymbolTableRecord
100
AcDbRegAppTableRecord
  2
ACAD_DSTYLE_DIMBREAK
 70
     0
  0
APPID
  5
3AA
330
9
100
AcDbSymbolTableRecord
100
AcDbRegAppTableRecord
  2
ACAD_PSEXT
 70
     0
  0
APPID
  5
3CB
330
9
100
AcDbSymbolTableRecord
100
AcDbRegAppTableRecord
  2
ACAD_EXEMPT_FROM_CAD_STANDARDS
 70
     0
  0
APPID
  5
3D3
330
9
100
AcDbSymbolTableRecord
100
AcDbRegAppTableRecord
  2
AcAecLayerStandard
 70
     0
  0
APPID
  5
485
330
9
100
AcDbSymbolTableRecord
100
AcDbRegAppTableRecord
  2
ACAD_DSTYLE_DIMTALN
 70
     0
  0
APPID
  5
5CF
330
9
100
AcDbSymbolTableRecord
100
AcDbRegAppTableRecord
  2
AcadAnnoPO
 70
     0
  0
APPID
  5
5DB
330
9
100
AcDbSymbolTableRecord
100
AcDbRegAppTableRecord
  2
ACAD_DSTYLE_DIMINSPECT
 70
     0
  0
APPID
  5
5E6
330
9
100
AcDbSymbolTableRecord
100
AcDbRegAppTableRecord
  2
GENIUS_GENDTOL_13
 70
     0
  0
APPID
  5
DDA
330
9
100
AcDbSymbolTableRecord
100
AcDbRegAppTableRecord
  2
ACAD_DSTYLE_DIM_LINETYPE
 70
     0
  0
APPID
  5
DDB
330
9
100
AcDbSymbolTableRecord
100
AcDbRegAppTableRecord
  2
ACAD_DSTYLE_DIM_EXT1_LINETYPE
 70
     0
  0
APPID
  5
DDC
330
9
100
AcDbSymbolTableRecord
100
AcDbRegAppTableRecord
  2
ACAD_DSTYLE_DIM_EXT2_LINETYPE
 70
     0
  0
ENDTAB
  0
TABLE
  2
DIMSTYLE
  5
A
330
0
100
AcDbSymbolTable
 70
     9
100
AcDbDimStyleTable
 71
     2
340
8C
340
486
  0
DIMSTYLE
105
27
330
A
100
AcDbSymbolTableRecord
100
AcDbDimStyleTableRecord
  2
Standard
 70
     0
340
11
  0
DIMSTYLE
105
8C
102
{ACAD_REACTORS
330
1A6C
102
}
330
A
100
AcDbSymbolTableRecord
100
AcDbDimStyleTableRecord
  2
AM_ANSI
 70
     0
  4
mm
 41
0.12
 42
0.05
 43
0.5
 44
0.1
 47
0.1
 48
0.1
 78
     7
 79
     2
140
0.12
141
0.0
146
0.71
147
0.06
176
   256
177
   256
178
   140
274
     4
284
     7
340
11
371
    -1
372
    -1
1001
ACAD_DSTYLE_DIMJOGGED_JOGANGLE_SYMBOL
1070
   384
1040
0.7853981633974483
1001
ACAD_DSTYLE_DIMJAG
1070
   388
1040
1.5
1001
ACAD_DSTYLE_DIMBREAK
1070
   391
1040
0.125
1001
ACAD_DSTYLE_DIMARC_LENGTH_SYMBOL
1070
   379
1070
     1
1001
ACAD_DSTYLE_DIM_LINETYPE
1070
   380
1005
14
1001
ACAD_DSTYLE_DIM_EXT1_LINETYPE
1070
   381
1005
14
1001
ACAD_DSTYLE_DIM_EXT2_LINETYPE
1070
   382
1005
14
  0
DIMSTYLE
105
8D
330
A
100
AcDbSymbolTableRecord
100
AcDbDimStyleTableRecord
  2
AM_ANSI$3
 70
     0
  4
mm
 41
0.12
 42
0.05
 43
0.5
 44
0.1
 47
0.1
 48
0.1
 78
     7
 79
     2
140
0.12
141
0.0
146
0.71
147
0.06
176
   256
177
   256
178
   140
274
     4
284
     7
288
     1
289
     0
340
11
371
    -1
372
    -1
1001
ACAD_DSTYLE_DIMJOGGED_JOGANGLE_SYMBOL
1070
   384
1040
0.7853981633974483
1001
ACAD_DSTYLE_DIMBREAK
1070
   391
1040
0.125
1001
ACAD_DSTYLE_DIMJAG
1070
   388
1040
1.5
1001
ACAD_DSTYLE_DIMARC_LENGTH_SYMBOL
1070
   379
1070
     1
1001
ACAD_DSTYLE_DIM_LINETYPE
1070
   380
1005
14
1001
ACAD_DSTYLE_DIM_EXT1_LINETYPE
1070
   381
1005
14
1001
ACAD_DSTYLE_DIM_EXT2_LINETYPE
1070
   382
1005
14
  0
DIMSTYLE
105
8E
330
A
100
AcDbSymbolTableRecord
100
AcDbDimStyleTableRecord
  2
AM_ANSI$4
 70
     0
  4
mm
 41
0.12
 42
0.05
 43
0.5
 44
0.1
 47
0.1
 48
0.1
 78
     7
 79
     2
140
0.12
141
0.0
146
0.71
147
0.06
176
   256
177
   256
178
   140
274
     4
284
     7
340
11
371
    -1
372
    -1
1001
ACAD_DSTYLE_DIMJOGGED_JOGANGLE_SYMBOL
1070
   384
1040
0.7853981633974483
1001
ACAD_DSTYLE_DIMBREAK
1070
   391
1040
0.125
1001
ACAD_DSTYLE_DIMJAG
1070
   388
1040
1.5
1001
ACAD_DSTYLE_DIMARC_LENGTH_SYMBOL
1070
   379
1070
     1
1001
ACAD_DSTYLE_DIM_LINETYPE
1070
   380
1005
14
1001
ACAD_DSTYLE_DIM_EXT1_LINETYPE
1070
   381
1005
14
1001
ACAD_DSTYLE_DIM_EXT2_LINETYPE
1070
   382
1005
14
  0
DIMSTYLE
105
8F
330
A
100
AcDbSymbolTableRecord
100
AcDbDimStyleTableRecord
  2
AM_ANSI$7
 70
     0
  4
mm
 41
0.12
 42
0.05
 43
0.5
 44
0.1
 47
0.1
 48
0.1
 78
     7
 79
     2
140
0.12
141
0.0
146
0.71
147
0.06
176
   256
177
   256
178
   140
274
     4
284
     7
340
11
371
    -1
372
    -1
1001
ACAD_DSTYLE_DIMJOGGED_JOGANGLE_SYMBOL
1070
   384
1040
0.7853981633974483
1001
ACAD_DSTYLE_DIMBREAK
1070
   391
1040
0.125
1001
ACAD_DSTYLE_DIMJAG
1070
   388
1040
1.5
1001
ACAD_DSTYLE_DIMARC_LENGTH_SYMBOL
1070
   379
1070
     1
1001
ACAD_DSTYLE_DIM_LINETYPE
1070
   380
1005
14
1001
ACAD_DSTYLE_DIM_EXT1_LINETYPE
1070
   381
1005
14
1001
ACAD_DSTYLE_DIM_EXT2_LINETYPE
1070
   382
1005
14
  0
DIMSTYLE
105
90
330
A
100
AcDbSymbolTableRecord
100
AcDbDimStyleTableRecord
  2
AM_ANSI$SF
 70
     0
  4
mm
 41
0.12
 42
0.05
 43
0.5
 44
0.1
 47
0.1
 48
0.1
 75
     1
 76
     1
 78
     7
 79
     2
140
0.12
141
0.0
146
0.71
147
0.06
176
   256
177
   256
178
   140
274
     4
284
     7
340
11
371
    -1
372
    -1
1001
ACAD_DSTYLE_DIMJOGGED_JOGANGLE_SYMBOL
1070
   384
1040
0.7853981633974483
1001
ACAD_DSTYLE_DIMBREAK
1070
   391
1040
0.125
1001
ACAD_DSTYLE_DIMJAG
1070
   388
1040
1.5
1001
ACAD_DSTYLE_DIMARC_LENGTH_SYMBOL
1070
   379
1070
     1
1001
ACAD_DSTYLE_DIM_LINETYPE
1070
   380
1005
14
1001
ACAD_DSTYLE_DIM_EXT1_LINETYPE
1070
   381
1005
14
1001
ACAD_DSTYLE_DIM_EXT2_LINETYPE
1070
   382
1005
14
  0
DIMSTYLE
105
95
330
A
100
AcDbSymbolTableRecord
100
AcDbDimStyleTableRecord
  2
AM_ANSI$SH
 70
     0
  4
mm
 41
0.12
 42
0.05
 43
0.5
 44
0.1
 47
0.1
 48
0.1
 75
     1
 76
     1
 78
     7
 79
     2
140
0.12
141
0.0
146
0.71
147
0.06
173
     1
176
   256
177
   256
178
   140
274
     4
284
     7
340
11
343
91
371
    -1
372
    -1
1001
ACAD_DSTYLE_DIMJOGGED_JOGANGLE_SYMBOL
1070
   384
1040
0.7853981633974483
1001
ACAD_DSTYLE_DIMBREAK
1070
   391
1040
0.125
1001
ACAD_DSTYLE_DIMJAG
1070
   388
1040
1.5
1001
ACAD_DSTYLE_DIMARC_LENGTH_SYMBOL
1070
   379
1070
     1
1001
ACAD_DSTYLE_DIM_LINETYPE
1070
   380
1005
14
1001
ACAD_DSTYLE_DIM_EXT1_LINETYPE
1070
   381
1005
14
1001
ACAD_DSTYLE_DIM_EXT2_LINETYPE
1070
   382
1005
14
  0
DIMSTYLE
105
486
102
{ACAD_REACTORS
330
619
330
B5E
102
}
330
A
100
AcDbSymbolTableRecord
100
AcDbDimStyleTableRecord
  2
Dean
 70
     0
  4
mm
 40
12.0
 41
0.12
 42
0.05
 43
0.5
 44
0.1
 47
0.1
 48
0.1
 78
     7
 79
     2
140
0.12
141
0.0
146
0.71
147
0.06
176
   256
177
   256
178
   140
284
     7
340
11
342
481
371
    -1
372
    -1
1001
ACAD_DSTYLE_DIMBREAK
1070
   391
1040
0.125
1001
ACAD_DSTYLE_DIMJAG
1070
   388
1040
1.5
1001
ACAD_DSTYLE_DIMTALN
1070
   392
1070
     0
1001
ACAD_DSTYLE_DIMARC_LENGTH_SYMBOL
1070
   379
1070
     1
1001
ACAD_DSTYLE_DIM_LINETYPE
1070
   380
1005
14
1001
ACAD_DSTYLE_DIM_EXT1_LINETYPE
1070
   381
1005
14
1001
ACAD_DSTYLE_DIM_EXT2_LINETYPE
1070
   382
1005
14
  0
ENDTAB
  0
TABLE
  2
BLOCK_RECORD
  5
1
330
0
100
AcDbSymbolTable
 70
     7
  0
BLOCK_RECORD
  5
1F
102
{ACAD_XDICTIONARY
360
99
102
}
330
1
100
AcDbSymbolTableRecord
100
AcDbBlockTableRecord
  2
*Model_Space
340
22
  0
BLOCK_RECORD
  5
1B
330
1
100
AcDbSymbolTableRecord
100
AcDbBlockTableRecord
  2
*Paper_Space
340
1E
  0
BLOCK_RECORD
  5
23
330
1
100
AcDbSymbolTableRecord
100
AcDbBlockTableRecord
  2
*Paper_Space0
340
26
  0
BLOCK_RECORD
  5
91
330
1
100
AcDbSymbolTableRecord
100
AcDbBlockTableRecord
  2
GENAXEH
340
0
  0
BLOCK_RECORD
  5
481
330
1
100
AcDbSymbolTableRecord
100
AcDbBlockTableRecord
  2
_ArchTick
340
0
102
{BLKREFS
331
D10
331
D11
331
19C3
331
19C4
102
}
  0
BLOCK_RECORD
  5
61A
330
1
100
AcDbSymbolTableRecord
100
AcDbBlockTableRecord
  2
*D3
340
0
  0
BLOCK_RECORD
  5
B5F
330
1
100
AcDbSymbolTableRecord
100
AcDbBlockTableRecord
  2
*D4
340
0
  0
ENDTAB
  0
ENDSEC
  0
SECTION
  2
BLOCKS
  0
BLOCK
  5
20
330
1F
100
AcDbEntity
  8
0
100
AcDbBlockBegin
  2
*Model_Space
 70
     0
 10
0.0
 20
0.0
 30
0.0
  3
*Model_Space
  1

  0
ENDBLK
  5
21
330
1F
100
AcDbEntity
  8
0
100
AcDbBlockEnd
  0
BLOCK
  5
1C
330
1B
100
AcDbEntity
 67
     1
  8
0
100
AcDbBlockBegin
  2
*Paper_Space
 70
     0
 10
0.0
 20
0.0
 30
0.0
  3
*Paper_Space
  1

  0
ENDBLK
  5
1D
330
1B
100
AcDbEntity
 67
     1
  8
0
100
AcDbBlockEnd
  0
BLOCK
  5
24
330
23
100
AcDbEntity
 67
     1
  8
0
100
AcDbBlockBegin
  2
*Paper_Space0
 70
     0
 10
0.0
 20
0.0
 30
0.0
  3
*Paper_Space0
  1

  0
ENDBLK
  5
25
330
23
100
AcDbEntity
 67
     1
  8
0
100
AcDbBlockEnd
  0
BLOCK
  5
93
330
91
100
AcDbEntity
  8
0
100
AcDbBlockBegin
  2
GENAXEH
 70
     0
 10
0.0
 20
0.0
 30
0.0
  3
GENAXEH
  1

  0
LINE
  5
92
330
91
100
AcDbEntity
  8
0
100
AcDbLine
 10
-1.0
 20
0.0
 30
0.0
 11
1.0
 21
0.0
 31
0.0
  0
ENDBLK
  5
94
330
91
100
AcDbEntity
  8
0
100
AcDbBlockEnd
  0
BLOCK
  5
483
330
481
100
AcDbEntity
  8
0
100
AcDbBlockBegin
  2
_ArchTick
 70
     0
 10
0.0
 20
0.0
 30
0.0
  3
_ArchTick
  1

  0
LWPOLYLINE
  5
482
330
481
100
AcDbEntity
  8
0
  6
ByBlock
 62
     0
100
AcDbPolyline
 90
        2
 70
     0
 43
0.15
 10
-0.5
 20
-0.5
 10
0.5
 20
0.5
  0
ENDBLK
  5
484
330
481
100
AcDbEntity
  8
0
100
AcDbBlockEnd
  0
BLOCK
  5
61B
330
61A
100
AcDbEntity
  8
0
100
AcDbBlockBegin
  2
*D3
 70
     1
 10
0.0
 20
0.0
 30
0.0
  3
*D3
  1

  0
LINE
  5
D0C
330
61A
100
AcDbEntity
  8
Dimensions & Text
  6
ByBlock
100
AcDbLine
 10
34.74884906491207
 20
19.09307512449363
 30
0.0
 11
34.74884906491207
 21
13.16045247722359
 31
0.0
  0
LINE
  5
D0D
330
61A
100
AcDbEntity
  8
Dimensions & Text
  6
ByBlock
100
AcDbLine
 10
66.74884906491207
 20
19.09307512449363
 30
0.0
 11
66.74884906491207
 21
13.16045247722359
 31
0.0
  0
LINE
  5
D0E
330
61A
100
AcDbEntity
  8
Dimensions & Text
  6
ByBlock
100
AcDbLine
 10
34.74884906491207
 20
14.36045247722359
 30
0.0
 11
42.68538704747744
 21
14.36045247722359
 31
0.0
  0
LINE
  5
D0F
330
61A
100
AcDbEntity
  8
Dimensions & Text
  6
ByBlock
100
AcDbLine
 10
66.74884906491207
 20
14.36045247722359
 30
0.0
 11
58.81231108234668
 21
14.36045247722359
 31
0.0
  0
INSERT
  5
D10
330
61A
100
AcDbEntity
  8
Dimensions & Text
100
AcDbBlockReference
  2
_ArchTick
 10
34.74884906491207
 20
14.36045247722359
 30
0.0
 41
1.439999999999999
 42
1.439999999999999
 43
1.439999999999999
 50
180.0
  0
INSERT
  5
D11
330
61A
100
AcDbEntity
  8
Dimensions & Text
100
AcDbBlockReference
  2
_ArchTick
 10
66.74884906491207
 20
14.36045247722359
 30
0.0
 41
1.439999999999999
 42
1.439999999999999
 43
1.439999999999999
  0
MTEXT
  5
D12
330
61A
100
AcDbEntity
  8
Dimensions & Text
 62
   140
100
AcDbMText
 10
50.74884906491206
 20
14.36045247722359
 30
0.0
 40
1.439999999999999
 41
0.0
 71
     5
 72
     1
  1
\A1;SEE BASEMENT PLAN
 73
     1
 44
1.0
1001
ACAD
1000
MTEXTBEGIN
1070
    73
1070
     1
1070
    44
1040
1.0
1070
    74
1070
     0
1000
MTEXTEND
  0
POINT
  5
D13
330
61A
100
AcDbEntity
  8
Defpoints
 62
     0
100
AcDbPoint
 10
34.74884906491207
 20
19.69307512449363
 30
0.0
  0
POINT
  5
D14
330
61A
100
AcDbEntity
  8
Defpoints
 62
     0
100
AcDbPoint
 10
66.74884906491207
 20
19.69307512449363
 30
0.0
  0
POINT
  5
D15
330
61A
100
AcDbEntity
  8
Defpoints
 62
     0
100
AcDbPoint
 10
66.74884906491207
 20
14.36045247722359
 30
0.0
  0
ENDBLK
  5
61C
330
61A
100
AcDbEntity
  8
0
100
AcDbBlockEnd
  0
BLOCK
  5
B60
330
B5F
100
AcDbEntity
  8
0
100
AcDbBlockBegin
  2
*D4
 70
     1
 10
0.0
 20
0.0
 30
0.0
  3
*D4
  1

  0
LINE
  5
19BF
330
B5F
100
AcDbEntity
  8
Dimensions & Text
  6
ByBlock
100
AcDbLine
 10
54.34884906491218
 20
78.62895969237583
 30
0.0
 11
97.07615321312871
 21
78.62895969237581
 31
0.0
  0
LINE
  5
19C0
330
B5F
100
AcDbEntity
  8
Dimensions & Text
  6
ByBlock
100
AcDbLine
 10
67.34884906491206
 20
19.69307512449363
 30
0.0
 11
97.07615321312871
 21
19.69307512449362
 31
0.0
  0
LINE
  5
19C1
330
B5F
100
AcDbEntity
  8
Dimensions & Text
  6
ByBlock
100
AcDbLine
 10
95.87615321312872
 20
78.62895969237583
 30
0.0
 11
95.87615321312872
 21
51.64001438806903
 31
0.0
  0
LINE
  5
19C2
330
B5F
100
AcDbEntity
  8
Dimensions & Text
  6
ByBlock
100
AcDbLine
 10
95.8761532131287
 20
19.69307512449362
 30
0.0
 11
95.87615321312872
 21
48.68469682891586
 31
0.0
  0
INSERT
  5
19C3
330
B5F
100
AcDbEntity
  8
Dimensions & Text
100
AcDbBlockReference
  2
_ArchTick
 10
95.87615321312872
 20
78.62895969237583
 30
0.0
 41
1.439999999999999
 42
1.439999999999999
 43
1.439999999999999
 50
90.0
  0
INSERT
  5
19C4
330
B5F
100
AcDbEntity
  8
Dimensions & Text
100
AcDbBlockReference
  2
_ArchTick
 10
95.8761532131287
 20
19.69307512449362
 30
0.0
 41
1.439999999999999
 42
1.439999999999999
 43
1.439999999999999
 50
270.0
  0
MTEXT
  5
19C5
330
B5F
100
AcDbEntity
  8
Dimensions & Text
 62
   140
100
AcDbMText
 10
95.8761532131287
 20
50.16235560849246
 30
0.0
 40
1.439999999999999
 41
0.0
 71
     5
 72
     1
  1
\A1;SEE SECTIONS
 73
     1
 44
1.0
1001
ACAD
1000
MTEXTBEGIN
1070
    73
1070
     1
1070
    44
1040
1.0
1070
    74
1070
     0
1000
MTEXTEND
  0
POINT
  5
19C6
330
B5F
100
AcDbEntity
  8
Defpoints
 62
     0
100
AcDbPoint
 10
53.74884906491217
 20
78.62895969237583
 30
0.0
  0
POINT
  5
19C7
330
B5F
100
AcDbEntity
  8
Defpoints
 62
     0
100
AcDbPoint
 10
66.74884906491207
 20
19.69307512449363
 30
0.0
  0
POINT
  5
19C8
330
B5F
100
AcDbEntity
  8
Defpoints
 62
     0
100
AcDbPoint
 10
95.8761532131287
 20
19.69307512449362
 30
0.0
  0
ENDBLK
  5
B61
330
B5F
100
AcDbEntity
  8
0
100
AcDbBlockEnd
  0
ENDSEC
  0
SECTION
  2
ENTITIES
  0
LINE
  5
3D7
330
1F
100
AcDbEntity
  8
Concrete
100
AcDbLine
 10
26.74884906491207
 20
35.69307512449363
 30
0.0
 11
48.99884906491217
 21
35.69307512449363
 31
0.0
  0
LINE
  5
3D8
330
1F
100
AcDbEntity
  8
Concrete
100
AcDbLine
 10
26.74884906491207
 20
35.69307512449363
 30
0.0
 11
26.74884906491207
 21
31.69307512449363
 31
0.0
  0
LINE
  5
3DA
330
1F
100
AcDbEntity
  8
Concrete
100
AcDbLine
 10
26.74884906491207
 20
31.69307512449363
 30
0.0
 11
74.74884906491206
 21
31.69307512449363
 31
0.0
  0
LINE
  5
3DB
330
1F
100
AcDbEntity
  8
Concrete
100
AcDbLine
 10
74.74884906491206
 20
31.69307512449363
 30
0.0
 11
74.74884906491206
 21
35.69307512449363
 31
0.0
  0
LINE
  5
428
102
{ACAD_REACTORS
330
632
102
}
330
1F
100
AcDbEntity
  8
Concrete
100
AcDbLine
 10
34.74884906491207
 20
19.69307512449363
 30
0.0
 11
66.74884906491207
 21
19.69307512449363
 31
0.0
  0
LINE
  5
42A
330
1F
100
AcDbEntity
  8
Concrete
100
AcDbLine
 10
34.74884906491207
 20
31.69307512449363
 30
0.0
 11
34.74884906491207
 21
19.69307512449363
 31
0.0
  0
LINE
  5
42B
102
{ACAD_REACTORS
330
B77
102
}
330
1F
100
AcDbEntity
  8
Concrete
100
AcDbLine
 10
66.74884906491207
 20
19.69307512449363
 30
0.0
 11
66.74884906491207
 21
31.69307512449363
 31
0.0
  0
HATCH
  5
476
330
1F
100
AcDbEntity
  8
Concrete
100
AcDbHatch
 10
0.0
 20
0.0
 30
0.0
210
0.0
220
0.0
230
1.0
  2
AR-CONC
 70
     0
 71
     0
 91
        2
 92
        7
 72
     0
 73
     1
 93
        4
 10
74.74884906491206
 20
35.69307512449363
 10
26.74884906491207
 20
35.69307512449363
 10
26.74884906491207
 20
31.69307512449363
 10
74.74884906491206
 20
31.69307512449363
 97
        0
 92
        7
 72
     0
 73
     1
 93
        4
 10
66.74884906491207
 20
31.69307512449363
 10
34.74884906491207
 20
31.69307512449363
 10
34.74884906491207
 20
19.69307512449363
 10
66.74884906491207
 20
19.69307512449363
 97
        0
 75
     0
 76
     1
 52
0.0
 41
1.0
 77
     0
 78
    13
 53
50.0
 43
3.220527093849113
 44
0.0
 45
7.172601826007534
 46
-0.6275213498259511
 79
     2
 49
0.75
 49
-8.25
 53
355.0
 43
3.220527093849113
 44
0.0
 45
-1.38751333613
 46
7.521921337000118
 79
     2
 49
0.6
 49
-6.599999999999999
 53
100.4514
 43
3.818243893849114
 44
-0.0522934
 45
5.785093817140215
 46
6.894395420609535
 79
     2
 49
0.6374019000000001
 49
-7.011421119999999
 53
46.1842
 43
3.220527093849113
 44
2.0
 45
10.67241048625644
 46
-1.65519014329018
 79
     2
 49
1.125
 49
-12.375
 53
96.63559999999998
 43
4.109894543849113
 44
1.862066929999999
 45
9.346627055487033
 46
9.741178709004417
 79
     2
 49
0.9561028799999998
 49
-10.51713
 53
351.1842000000001
 43
3.220527093849113
 44
2.0
 45
9.346619451336271
 46
9.741186009253246
 79
     2
 49
0.9
 49
-9.9
 53
21.0
 43
4.220527093849113
 44
1.5
 45
5.969070521184616
 46
-4.026188906653388
 79
     2
 49
0.75
 49
-8.25
 53
326.0
 43
4.220527093849113
 44
1.5
 45
2.433153319215817
 46
7.25150045046853
 79
     2
 49
0.6
 49
-6.599999999999999
 53
71.45140000000001
 43
4.717949423849113
 44
1.164483939999999
 45
8.402226285814899
 46
3.225304967099523
 79
     2
 49
0.6374019000000001
 49
-7.011421119999999
 53
37.5
 43
3.220527093849113
 44
0.0
 45
0.1215985531729067
 46
3.328938538313114
 79
     6
 49
0.0
 49
-6.519999999999999
 49
0.0
 49
-6.7
 49
0.0
 49
-6.625
 53
7.499999999999999
 43
3.220527093849113
 44
0.0
 45
2.630695374421486
 46
3.944117118823602
 79
     6
 49
0.0
 49
-3.819999999999999
 49
0.0
 49
-6.37
 49
0.0
 49
-2.524999999999999
 53
327.5
 43
0.9905270938491138
 44
0.0
 45
5.33822436172409
 46
-0.225548717343798
 79
     6
 49
0.0
 49
-2.5
 49
0.0
 49
-7.799999999999999
 49
0.0
 49
-10.35
 53
317.5
 43
-0.009472906150886
 44
0.0
 45
5.831861693423862
 46
1.001049823323176
 79
     6
 49
0.0
 49
-3.25
 49
0.0
 49
-5.179999999999999
 49
0.0
 49
-7.349999999999999
 47
0.160805988212668
 98
        2
 10
56.88368437744668
 20
33.40565300767143
 10
56.72281038655566
 20
26.33018947821377
1001
ACAD
1010
0.0
1020
0.0
1030
0.0
  0
LINE
  5
478
102
{ACAD_REACTORS
330
480
102
}
330
1F
100
AcDbEntity
  8
Misc
100
AcDbLine
 10
38.86622959269347
 20
25.94307512449363
 30
0.0
 11
62.63146853713066
 21
25.94307512449363
 31
0.0
  0
LINE
  5
479
102
{ACAD_REACTORS
330
480
102
}
330
1F
100
AcDbEntity
  8
Misc
100
AcDbLine
 10
38.86622959269347
 20
25.44307512449363
 30
0.0
 11
62.63146853713064
 21
25.44307512449364
 31
0.0
  0
LINE
  5
47A
102
{ACAD_REACTORS
330
480
102
}
330
1F
100
AcDbEntity
  8
Misc
100
AcDbLine
 10
62.63146853713064
 20
25.44307512449364
 30
0.0
 11
62.63146853713066
 21
25.94307512449363
 31
0.0
  0
LINE
  5
47B
102
{ACAD_REACTORS
330
480
330
871
102
}
330
1F
100
AcDbEntity
  8
Misc
100
AcDbLine
 10
38.86622959269347
 20
25.44307512449363
 30
0.0
 11
38.86622959269347
 21
25.94307512449363
 31
0.0
  0
HATCH
  5
480
330
1F
100
AcDbEntity
  8
Misc
100
AcDbHatch
 10
0.0
 20
0.0
 30
0.0
210
0.0
220
0.0
230
1.0
  2
SOLID
 70
     1
 71
     1
 91
        1
 92
        7
 72
     0
 73
     1
 93
        4
 10
62.63146853713064
 20
25.44307512449364
 10
62.63146853713066
 20
25.94307512449363
 10
38.86622959269347
 20
25.94307512449363
 10
38.86622959269347
 20
25.44307512449363
 97
        4
330
478
330
47B
330
479
330
47A
 75
     0
 76
     1
 47
0.0382187986124461
 98
        1
 10
43.14667763345584
 20
25.52692242786493
1001
ACAD
1010
0.0
1020
0.0
1030
0.0
  0
DIMENSION
  5
619
102
{ACAD_XDICTIONARY
360
627
102
}
102
{ACAD_REACTORS
330
632
102
}
330
1F
100
AcDbEntity
  8
Dimensions & Text
100
AcDbDimension
  2
*D3
 10
66.74884906491207
 20
14.36045247722359
 30
0.0
 11
50.74884906491206
 21
14.36045247722359
 31
0.0
 70
    32
  1
SEE BASEMENT PLAN
 71
     5
 42
32.0
  3
Dean
100
AcDbAlignedDimension
 13
34.74884906491207
 23
19.69307512449363
 33
0.0
 14
66.74884906491207
 24
19.69307512449363
 34
0.0
100
AcDbRotatedDimension
1001
ACAD_DSTYLE_DIMINSPECT
1070
   396
1000
100%
1070
   395
1000

1070
   394
1070
    33
1070
   393
1070
     0
  0
CIRCLE
  5
689
330
1F
100
AcDbEntity
  8
Dimensions & Text
100
AcDbCircle
 10
20.62823426357855
 20
2.216290651305342
 30
0.0
 40
2.373282571699803
  0
LINE
  5
68A
330
1F
100
AcDbEntity
  8
Dimensions & Text
100
AcDbLine
 10
23.00151683527835
 20
2.216290651305342
 30
0.0
 11
49.4873510311337
 21
2.216290651305342
 31
0.0
  0
TEXT
  5
68C
330
1F
100
AcDbEntity
  8
Dimensions & Text
100
AcDbText
 10
20.1367825653353
 20
1.35651785459656
 30
0.0
 40
1.719545593417564
  1
X
 72
     1
 11
20.62823426357855
 21
2.216290651305342
 31
0.0
100
AcDbText
 73
     2
  0
TEXT
  5
68D
330
1F
100
AcDbEntity
  8
Dimensions & Text
100
AcDbText
 10
24.4462027043392
 20
3.140227203291217
 30
0.0
 40
1.719545593417564
  1
COLUMN DETAIL
 72
     1
 11
31.22052709384912
 21
4.0
 31
0.0
100
AcDbText
 73
     2
  0
CIRCLE
  5
754
102
{ACAD_REACTORS
330
757
102
}
330
1F
100
AcDbEntity
  8
Misc
100
AcDbCircle
 10
40.34552709384911
 20
24.875
 30
0.0
 40
0.375
  0
HATCH
  5
757
330
1F
100
AcDbEntity
  8
Misc
100
AcDbHatch
 10
0.0
 20
0.0
 30
0.0
210
0.0
220
0.0
230
1.0
  2
SOLID
 70
     1
 71
     1
 91
        1
 92
        7
 72
     1
 73
     1
 93
        2
 10
39.97052709384912
 20
24.875
 42
1.0
 10
40.72052709384911
 20
24.875
 42
1.0
 97
        1
330
754
 75
     0
 76
     1
 47
0.0153508914909711
 98
        1
 10
40.22052709384911
 20
25.0
1001
ACAD
1010
0.0
1020
0.0
1030
0.0
  0
HATCH
  5
758
330
1F
100
AcDbEntity
  8
Misc
100
AcDbHatch
 10
0.0
 20
0.0
 30
0.0
210
0.0
220
0.0
230
1.0
  2
SOLID
 70
     1
 71
     1
 91
        1
 92
        7
 72
     1
 73
     1
 93
        2
 10
60.77717103597501
 20
24.875
 42
1.0
 10
61.52717103597502
 20
24.875
 42
1.0
 97
        1
330
759
 75
     0
 76
     1
 47
0.0153508914909711
 98
        1
 10
61.27717103597501
 20
25.0
1001
ACAD
1010
0.0
1020
0.0
1030
0.0
  0
CIRCLE
  5
759
102
{ACAD_REACTORS
330
758
102
}
330
1F
100
AcDbEntity
  8
Misc
100
AcDbCircle
 10
61.15217103597501
 20
24.875
 30
0.0
 40
0.375
  0
HATCH
  5
75C
330
1F
100
AcDbEntity
  8
Misc
100
AcDbHatch
 10
0.0
 20
0.0
 30
0.0
210
0.0
220
0.0
230
1.0
  2
SOLID
 70
     1
 71
     1
 91
        1
 92
        7
 72
     1
 73
     1
 93
        2
 10
54.02717103597502
 20
24.875
 42
1.0
 10
54.77717103597502
 20
24.875
 42
1.0
 97
        1
330
75D
 75
     0
 76
     1
 47
0.0153508914909711
 98
        1
 10
54.52717103597501
 20
25.0
1001
ACAD
1010
0.0
1020
0.0
1030
0.0
  0
CIRCLE
  5
75D
102
{ACAD_REACTORS
330
75C
102
}
330
1F
100
AcDbEntity
  8
Misc
100
AcDbCircle
 10
54.40217103597501
 20
24.875
 30
0.0
 40
0.375
  0
HATCH
  5
75E
330
1F
100
AcDbEntity
  8
Misc
100
AcDbHatch
 10
0.0
 20
0.0
 30
0.0
210
0.0
220
0.0
230
1.0
  2
SOLID
 70
     1
 71
     1
 91
        1
 92
        7
 72
     1
 73
     1
 93
        2
 10
46.72052709384911
 20
24.875
 42
1.0
 10
47.47052709384911
 20
24.875
 42
1.0
 97
        1
330
75F
 75
     0
 76
     1
 47
0.0153508914909711
 98
        1
 10
46.97052709384911
 20
25.0
1001
ACAD
1010
0.0
1020
0.0
1030
0.0
  0
CIRCLE
  5
75F
102
{ACAD_REACTORS
330
75E
102
}
330
1F
100
AcDbEntity
  8
Misc
100
AcDbCircle
 10
47.09552709384911
 20
24.875
 30
0.0
 40
0.375
  0
MTEXT
  5
7A3
330
1F
100
AcDbEntity
  8
Dimensions & Text
 62
   140
100
AcDbMText
 10
30.34552709384911
 20
28.0
 30
0.0
 40
1.439999999999999
 41
0.0
 71
     6
 72
     1
  1
#6's @ 12" O.C. EACH WAY
 73
     1
 44
1.0
1001
ACAD
1000
MTEXTBEGIN
1070
    73
1070
     1
1070
    44
1040
1.0
1070
    74
1070
     0
1000
MTEXTEND
  0
LEADER
  5
82A
330
1F
100
AcDbEntity
  8
Dimensions & Text
100
AcDbLeader
  3
Dean
 76
     3
 10
26.74884906491207
 20
33.69307512449363
 30
0.0
 10
20.84552709384912
 20
36.0
 30
0.0
 10
19.59552709384911
 20
36.0
 30
0.0
  0
MTEXT
  5
82C
330
1F
100
AcDbEntity
  8
Dimensions & Text
 62
   140
100
AcDbMText
 10
18.97052709384911
 20
36.0
 30
0.0
 40
1.439999999999999
 41
0.0
 71
     6
 72
     1
  1
4" REINFORCED CONCRETE SLAB
 73
     1
 44
1.0
1001
ACAD
1000
MTEXTBEGIN
1070
    73
1070
     1
1070
    44
1040
1.0
1070
    74
1070
     0
1000
MTEXTEND
  0
LEADER
  5
86F
102
{ACAD_XDICTIONARY
360
870
102
}
102
{ACAD_REACTORS
330
871
102
}
330
1F
100
AcDbEntity
  8
Dimensions & Text
100
AcDbLeader
  3
Dean
 76
     3
 10
38.86622959269347
 20
25.69307512449363
 30
0.0
 10
32.97052709384912
 20
28.0
 30
0.0
 10
30.97052709384911
 20
28.0
 30
0.0
  0
LINE
  5
90F
330
1F
100
AcDbEntity
  8
Plates
  6
Continuous
100
AcDbLine
 10
52.46759906491267
 20
34.68432142937468
 30
0.0
 11
51.96759906491267
 21
34.68432142937465
 31
0.0
  0
LINE
  5
911
330
1F
100
AcDbEntity
  8
Plates
  6
Continuous
100
AcDbLine
 10
52.46759906491377
 20
31.94307512449441
 30
0.0
 11
51.96759906491377
 21
31.94307512449422
 31
0.0
  0
LINE
  5
912
330
1F
100
AcDbEntity
  8
Plates
  6
Continuous
100
AcDbLine
 10
51.96759906491267
 20
34.68432142937468
 30
0.0
 11
51.96759906491377
 21
31.94307512449419
 31
0.0
  0
LINE
  5
913
330
1F
100
AcDbEntity
  8
Plates
  6
Continuous
100
AcDbLine
 10
52.46759906491267
 20
34.68432142937468
 30
0.0
 11
52.46759906491377
 21
31.94307512449441
 31
0.0
  0
LWPOLYLINE
  5
914
330
1F
100
AcDbEntity
  8
Plates
  6
Continuous
100
AcDbPolyline
 90
        4
 70
     1
 43
0.0
 10
45.99884906491218
 20
31.69307512449365
 10
55.49884906491195
 20
31.69307512449362
 10
55.49884906491195
 20
31.94307512449362
 10
45.99884906491218
 20
31.94307512449365
  0
LWPOLYLINE
  5
915
102
{ACAD_REACTORS
330
961
102
}
330
1F
100
AcDbEntity
  8
Plates
  6
Continuous
100
AcDbPolyline
 90
        4
 70
     1
 43
0.0
 10
48.31134906491218
 20
34.43432142937468
 10
53.18634906491218
 20
34.43432142937468
 10
53.18634906491218
 20
34.68432142937468
 10
48.31134906491218
 20
34.68432142937468
  0
LINE
  5
916
330
1F
100
AcDbEntity
  8
Plates
  6
Continuous
100
AcDbLine
 10
49.03009906491196
 20
34.68432142937468
 30
0.0
 11
49.03009906491241
 21
31.94307512449365
 31
0.0
  0
LINE
  5
917
330
1F
100
AcDbEntity
  8
Plates
  6
Continuous
100
AcDbLine
 10
49.53009906491195
 20
34.68432142937468
 30
0.0
 11
49.5300990649124
 21
31.94307512449365
 31
0.0
  0
LINE
  5
918
330
1F
100
AcDbEntity
  8
Plates
  6
Continuous
100
AcDbLine
 10
49.03009906491241
 20
31.94307512449365
 30
0.0
 11
49.5300990649124
 21
31.94307512449368
 31
0.0
  0
LINE
  5
91A
330
1F
100
AcDbEntity
  8
Plates
  6
Continuous
100
AcDbLine
 10
49.03009906491196
 20
34.68432142937468
 30
0.0
 11
49.53009906491195
 21
34.68432142937468
 31
0.0
  0
LEADER
  5
95E
102
{ACAD_XDICTIONARY
360
960
102
}
102
{ACAD_REACTORS
330
961
102
}
330
1F
100
AcDbEntity
  8
Dimensions & Text
100
AcDbLeader
  3
Dean
 73
     0
 75
     1
 40
4.502435865504359
 41
19.40861768368618
 76
     4
 10
48.31134906491218
 20
34.55932142937468
 30
0.0
 10
42.22052709384911
 20
39.125
 30
0.0
 10
36.88052709384911
 20
43.0
 30
0.0
 10
35.44052709384911
 20
43.0
 30
0.0
340
95F
  0
MTEXT
  5
95F
102
{ACAD_REACTORS
330
95E
102
}
330
1F
100
AcDbEntity
  8
Dimensions & Text
 62
   140
100
AcDbMText
 10
34.72052709384911
 20
43.0
 30
0.0
 40
1.439999999999999
 41
0.0
 71
     6
 72
     1
  1
\A1;3{\H0.7x;\S1/2;}" ADJUSTABLE BASE SET\PBY DEAN COLUMN CO., INC.
 73
     1
 44
1.0
1001
ACAD
1000
MTEXTBEGIN
1070
    73
1070
     1
1070
    44
1040
1.0
1070
    74
1070
     0
1000
MTEXTEND
  0
LINE
  5
9AF
102
{ACAD_REACTORS
330
B52
102
}
330
1F
100
AcDbEntity
  8
Column
100
AcDbLine
 10
52.49884906491217
 20
34.68432142937468
 30
0.0
 11
52.49884906491218
 21
53.54296266022181
 31
0.0
  0
LINE
  5
9B0
330
1F
100
AcDbEntity
  8
Column
100
AcDbLine
 10
48.99884906491218
 20
34.68432142937468
 30
0.0
 11
52.49884906491217
 21
34.68432142937468
 31
0.0
  0
LINE
  5
9B1
330
1F
100
AcDbEntity
  8
Column
100
AcDbLine
 10
48.99884906491218
 20
70.88163609249128
 30
0.0
 11
48.99884906491218
 21
54.57406698632484
 31
0.0
  0
POLYLINE
  5
9B2
330
1F
100
AcDbEntity
  8
Column
100
AcDb2dPolyline
 66
     1
 10
0.0
 20
0.0
 30
0.0
 70
     4
 75
     6
  0
VERTEX
  5
A0C
330
9B2
100
AcDbEntity
  8
Column
100
AcDbVertex
100
AcDb2dVertex
 10
48.99884906491218
 20
53.45024986711013
 30
0.0
 70
    16
  0
VERTEX
  5
A13
330
9B2
100
AcDbEntity
  8
Column
100
AcDbVertex
100
AcDb2dVertex
 10
48.99884906491218
 20
53.45024986711013
 30
0.0
 70
     8
  0
VERTEX
  5
A14
330
9B2
100
AcDbEntity
  8
Column
100
AcDbVertex
100
AcDb2dVertex
 10
49.22229121141958
 20
53.53009957701701
 30
0.0
 70
     8
  0
VERTEX
  5
A15
330
9B2
100
AcDbEntity
  8
Column
100
AcDbVertex
100
AcDb2dVertex
 10
49.41670168135866
 20
53.5678346708323
 30
0.0
 70
     8
  0
VERTEX
  5
A16
330
9B2
100
AcDbEntity
  8
Column
100
AcDbVertex
100
AcDb2dVertex
 10
49.58655379159353
 20
53.57233780368909
 30
0.0
 70
     8
  0
VERTEX
  5
A17
330
9B2
100
AcDbEntity
  8
Column
100
AcDbVertex
100
AcDb2dVertex
 10
49.7363208589883
 20
53.55249163072042
 30
0.0
 70
     8
  0
VERTEX
  5
A18
330
9B2
100
AcDbEntity
  8
Column
100
AcDbVertex
100
AcDb2dVertex
 10
49.87047620040706
 20
53.51717880705937
 30
0.0
 70
     8
  0
VERTEX
  5
A19
330
9B2
100
AcDbEntity
  8
Column
100
AcDbVertex
100
AcDb2dVertex
 10
49.99349313271393
 20
53.47528198783899
 30
0.0
 70
     8
  0
VERTEX
  5
A1A
330
9B2
100
AcDbEntity
  8
Column
100
AcDbVertex
100
AcDb2dVertex
 10
50.109844972773
 20
53.43568382819234
 30
0.0
 70
     8
  0
VERTEX
  5
A1B
330
9B2
100
AcDbEntity
  8
Column
100
AcDbVertex
100
AcDb2dVertex
 10
50.22400503744837
 20
53.40726698325248
 30
0.0
 70
     8
  0
VERTEX
  5
A1C
330
9B2
100
AcDbEntity
  8
Column
100
AcDbVertex
100
AcDb2dVertex
 10
50.33969619595532
 20
53.39654638786392
 30
0.0
 70
     8
  0
VERTEX
  5
A1D
330
9B2
100
AcDbEntity
  8
Column
100
AcDbVertex
100
AcDb2dVertex
 10
50.45763952691371
 20
53.40056609571679
 30
0.0
 70
     8
  0
VERTEX
  5
A1E
330
9B2
100
AcDbEntity
  8
Column
100
AcDbVertex
100
AcDb2dVertex
 10
50.57780566129458
 20
53.41400244021269
 30
0.0
 70
     8
  0
VERTEX
  5
A1F
330
9B2
100
AcDbEntity
  8
Column
100
AcDbVertex
100
AcDb2dVertex
 10
50.70016523006895
 20
53.43153175475317
 30
0.0
 70
     8
  0
VERTEX
  5
A20
330
9B2
100
AcDbEntity
  8
Column
100
AcDbVertex
100
AcDb2dVertex
 10
50.82468886420786
 20
53.44783037273982
 30
0.0
 70
     8
  0
VERTEX
  5
A21
330
9B2
100
AcDbEntity
  8
Column
100
AcDbVertex
100
AcDb2dVertex
 10
50.95134719468234
 20
53.45757462757424
 30
0.0
 70
     8
  0
VERTEX
  5
A22
330
9B2
100
AcDbEntity
  8
Column
100
AcDbVertex
100
AcDb2dVertex
 10
51.08011085246341
 20
53.45544085265795
 30
0.0
 70
     8
  0
VERTEX
  5
A23
330
9B2
100
AcDbEntity
  8
Column
100
AcDbVertex
100
AcDb2dVertex
 10
51.21095046852213
 20
53.43610538139259
 30
0.0
 70
     8
  0
VERTEX
  5
A24
330
9B2
100
AcDbEntity
  8
Column
100
AcDbVertex
100
AcDb2dVertex
 10
51.34416864932441
 20
53.39721259817448
 30
0.0
 70
     8
  0
VERTEX
  5
A25
330
9B2
100
AcDbEntity
  8
Column
100
AcDbVertex
100
AcDb2dVertex
 10
51.48139590331595
 20
53.34827909137914
 30
0.0
 70
     8
  0
VERTEX
  5
A26
330
9B2
100
AcDbEntity
  8
Column
100
AcDbVertex
100
AcDb2dVertex
 10
51.62459471443732
 20
53.30178950037685
 30
0.0
 70
     8
  0
VERTEX
  5
A27
330
9B2
100
AcDbEntity
  8
Column
100
AcDbVertex
100
AcDb2dVertex
 10
51.77572756662911
 20
53.27022846453794
 30
0.0
 70
     8
  0
VERTEX
  5
A28
330
9B2
100
AcDbEntity
  8
Column
100
AcDbVertex
100
AcDb2dVertex
 10
51.93675694383188
 20
53.26608062323268
 30
0.0
 70
     8
  0
VERTEX
  5
A29
330
9B2
100
AcDbEntity
  8
Column
100
AcDbVertex
100
AcDb2dVertex
 10
52.10964532998628
 20
53.30183061583138
 30
0.0
 70
     8
  0
VERTEX
  5
A2A
330
9B2
100
AcDbEntity
  8
Column
100
AcDbVertex
100
AcDb2dVertex
 10
52.29635520903284
 20
53.38996308170433
 30
0.0
 70
     8
  0
VERTEX
  5
A2B
330
9B2
100
AcDbEntity
  8
Column
100
AcDbVertex
100
AcDb2dVertex
 10
52.49884906491217
 20
53.54296266022181
 30
0.0
 70
     8
  0
VERTEX
  5
A0D
330
9B2
100
AcDbEntity
  8
Column
100
AcDbVertex
100
AcDb2dVertex
 10
49.63737997267998
 20
53.72723094176885
 30
0.0
 70
    16
  0
VERTEX
  5
A0E
330
9B2
100
AcDbEntity
  8
Column
100
AcDbVertex
100
AcDb2dVertex
 10
50.19966859499061
 20
53.1932513049606
 30
0.0
 70
    16
  0
VERTEX
  5
A0F
330
9B2
100
AcDbEntity
  8
Column
100
AcDbVertex
100
AcDb2dVertex
 10
51.1891201832031
 20
53.67637591949952
 30
0.0
 70
    16
  0
VERTEX
  5
A10
330
9B2
100
AcDbEntity
  8
Column
100
AcDbVertex
100
AcDb2dVertex
 10
51.93607571662084
 20
53.03737684343108
 30
0.0
 70
    16
  0
VERTEX
  5
A11
330
9B2
100
AcDbEntity
  8
Column
100
AcDbVertex
100
AcDb2dVertex
 10
52.49884906491217
 20
53.54296266022182
 30
0.0
 70
    16
  0
SEQEND
  5
A12
330
9B2
100
AcDbEntity
  8
Column
  0
POLYLINE
  5
A2C
330
1F
100
AcDbEntity
  8
Column
100
AcDb2dPolyline
 66
     1
 10
0.0
 20
0.0
 30
0.0
 70
     4
 75
     6
  0
VERTEX
  5
A2D
330
A2C
100
AcDbEntity
  8
Column
100
AcDbVertex
100
AcDb2dVertex
 10
48.99884906491218
 20
54.57406698632485
 30
0.0
 70
    16
  0
VERTEX
  5
A2E
330
A2C
100
AcDbEntity
  8
Column
100
AcDbVertex
100
AcDb2dVertex
 10
48.99884906491218
 20
54.57406698632485
 30
0.0
 70
     8
  0
VERTEX
  5
A2F
330
A2C
100
AcDbEntity
  8
Column
100
AcDbVertex
100
AcDb2dVertex
 10
49.22229121141958
 20
54.65391669623173
 30
0.0
 70
     8
  0
VERTEX
  5
A30
330
A2C
100
AcDbEntity
  8
Column
100
AcDbVertex
100
AcDb2dVertex
 10
49.41670168135866
 20
54.69165179004702
 30
0.0
 70
     8
  0
VERTEX
  5
A31
330
A2C
100
AcDbEntity
  8
Column
100
AcDbVertex
100
AcDb2dVertex
 10
49.58655379159353
 20
54.69615492290381
 30
0.0
 70
     8
  0
VERTEX
  5
A32
330
A2C
100
AcDbEntity
  8
Column
100
AcDbVertex
100
AcDb2dVertex
 10
49.7363208589883
 20
54.67630874993514
 30
0.0
 70
     8
  0
VERTEX
  5
A33
330
A2C
100
AcDbEntity
  8
Column
100
AcDbVertex
100
AcDb2dVertex
 10
49.87047620040706
 20
54.64099592627409
 30
0.0
 70
     8
  0
VERTEX
  5
A34
330
A2C
100
AcDbEntity
  8
Column
100
AcDbVertex
100
AcDb2dVertex
 10
49.99349313271393
 20
54.59909910705371
 30
0.0
 70
     8
  0
VERTEX
  5
A35
330
A2C
100
AcDbEntity
  8
Column
100
AcDbVertex
100
AcDb2dVertex
 10
50.109844972773
 20
54.55950094740706
 30
0.0
 70
     8
  0
VERTEX
  5
A36
330
A2C
100
AcDbEntity
  8
Column
100
AcDbVertex
100
AcDb2dVertex
 10
50.22400503744837
 20
54.5310841024672
 30
0.0
 70
     8
  0
VERTEX
  5
A37
330
A2C
100
AcDbEntity
  8
Column
100
AcDbVertex
100
AcDb2dVertex
 10
50.33969619595532
 20
54.52036350707864
 30
0.0
 70
     8
  0
VERTEX
  5
A38
330
A2C
100
AcDbEntity
  8
Column
100
AcDbVertex
100
AcDb2dVertex
 10
50.45763952691371
 20
54.52438321493151
 30
0.0
 70
     8
  0
VERTEX
  5
A39
330
A2C
100
AcDbEntity
  8
Column
100
AcDbVertex
100
AcDb2dVertex
 10
50.57780566129458
 20
54.53781955942741
 30
0.0
 70
     8
  0
VERTEX
  5
A3A
330
A2C
100
AcDbEntity
  8
Column
100
AcDbVertex
100
AcDb2dVertex
 10
50.70016523006895
 20
54.55534887396789
 30
0.0
 70
     8
  0
VERTEX
  5
A3B
330
A2C
100
AcDbEntity
  8
Column
100
AcDbVertex
100
AcDb2dVertex
 10
50.82468886420786
 20
54.57164749195454
 30
0.0
 70
     8
  0
VERTEX
  5
A3C
330
A2C
100
AcDbEntity
  8
Column
100
AcDbVertex
100
AcDb2dVertex
 10
50.95134719468234
 20
54.58139174678896
 30
0.0
 70
     8
  0
VERTEX
  5
A3D
330
A2C
100
AcDbEntity
  8
Column
100
AcDbVertex
100
AcDb2dVertex
 10
51.08011085246341
 20
54.57925797187267
 30
0.0
 70
     8
  0
VERTEX
  5
A3E
330
A2C
100
AcDbEntity
  8
Column
100
AcDbVertex
100
AcDb2dVertex
 10
51.21095046852213
 20
54.55992250060731
 30
0.0
 70
     8
  0
VERTEX
  5
A3F
330
A2C
100
AcDbEntity
  8
Column
100
AcDbVertex
100
AcDb2dVertex
 10
51.34416864932441
 20
54.5210297173892
 30
0.0
 70
     8
  0
VERTEX
  5
A40
330
A2C
100
AcDbEntity
  8
Column
100
AcDbVertex
100
AcDb2dVertex
 10
51.48139590331595
 20
54.47209621059386
 30
0.0
 70
     8
  0
VERTEX
  5
A41
330
A2C
100
AcDbEntity
  8
Column
100
AcDbVertex
100
AcDb2dVertex
 10
51.62459471443732
 20
54.42560661959157
 30
0.0
 70
     8
  0
VERTEX
  5
A42
330
A2C
100
AcDbEntity
  8
Column
100
AcDbVertex
100
AcDb2dVertex
 10
51.77572756662911
 20
54.39404558375266
 30
0.0
 70
     8
  0
VERTEX
  5
A43
330
A2C
100
AcDbEntity
  8
Column
100
AcDbVertex
100
AcDb2dVertex
 10
51.93675694383188
 20
54.3898977424474
 30
0.0
 70
     8
  0
VERTEX
  5
A44
330
A2C
100
AcDbEntity
  8
Column
100
AcDbVertex
100
AcDb2dVertex
 10
52.10964532998628
 20
54.4256477350461
 30
0.0
 70
     8
  0
VERTEX
  5
A45
330
A2C
100
AcDbEntity
  8
Column
100
AcDbVertex
100
AcDb2dVertex
 10
52.29635520903284
 20
54.51378020091905
 30
0.0
 70
     8
  0
VERTEX
  5
A46
330
A2C
100
AcDbEntity
  8
Column
100
AcDbVertex
100
AcDb2dVertex
 10
52.49884906491217
 20
54.66677977943653
 30
0.0
 70
     8
  0
VERTEX
  5
A47
330
A2C
100
AcDbEntity
  8
Column
100
AcDbVertex
100
AcDb2dVertex
 10
49.63737997267998
 20
54.85104806098357
 30
0.0
 70
    16
  0
VERTEX
  5
A48
330
A2C
100
AcDbEntity
  8
Column
100
AcDbVertex
100
AcDb2dVertex
 10
50.19966859499061
 20
54.31706842417532
 30
0.0
 70
    16
  0
VERTEX
  5
A49
330
A2C
100
AcDbEntity
  8
Column
100
AcDbVertex
100
AcDb2dVertex
 10
51.1891201832031
 20
54.80019303871424
 30
0.0
 70
    16
  0
VERTEX
  5
A4A
330
A2C
100
AcDbEntity
  8
Column
100
AcDbVertex
100
AcDb2dVertex
 10
51.93607571662084
 20
54.1611939626458
 30
0.0
 70
    16
  0
VERTEX
  5
A4B
330
A2C
100
AcDbEntity
  8
Column
100
AcDbVertex
100
AcDb2dVertex
 10
52.49884906491217
 20
54.66677977943654
 30
0.0
 70
    16
  0
SEQEND
  5
A4C
330
A2C
100
AcDbEntity
  8
Column
  0
LINE
  5
A4D
102
{ACAD_REACTORS
330
B55
102
}
330
1F
100
AcDbEntity
  8
Column
100
AcDbLine
 10
52.49884906491218
 20
54.66677977943653
 30
0.0
 11
52.49884906491217
 21
70.88163609249128
 31
0.0
  0
LINE
  5
A4E
330
1F
100
AcDbEntity
  8
Column
100
AcDbLine
 10
48.99884906491218
 20
53.45024986711013
 30
0.0
 11
48.99884906491218
 21
34.68432142937468
 31
0.0
  0
LEADER
  5
B4F
102
{ACAD_XDICTIONARY
360
B51
102
}
102
{ACAD_REACTORS
330
B52
102
}
330
1F
100
AcDbEntity
  8
Dimensions & Text
100
AcDbLeader
  3
Dean
 73
     0
 40
4.328488169364882
 41
22.7652702366127
 76
     3
 10
52.49884906491217
 20
44.11364204479824
 30
0.0
 10
60.7381260751975
 20
52.26387064053878
 30
0.0
 10
62.60825388804602
 20
52.26387064053878
 30
0.0
340
B50
  0
MTEXT
  5
B50
102
{ACAD_REACTORS
330
B4F
102
}
330
1F
100
AcDbEntity
  8
Dimensions & Text
 62
   140
100
AcDbMText
 10
63.32825388804602
 20
52.26387064053878
 30
0.0
 40
1.439999999999999
 41
0.0
 71
     4
 72
     1
  1
\A1;3{\H0.7x;\S1/2;}" DEAN COLUMN LALLY LOCK\PCONCRETE FILLED COLUMN
 73
     1
 44
1.0
1001
ACAD
1000
MTEXTBEGIN
1070
    73
1070
     1
1070
    44
1040
1.0
1070
    74
1070
     0
1000
MTEXTEND
  0
LEADER
  5
B53
102
{ACAD_XDICTIONARY
360
B54
102
}
102
{ACAD_REACTORS
330
B55
102
}
330
1F
100
AcDbEntity
  8
Dimensions & Text
100
AcDbLeader
  3
Dean
 76
     2
 10
52.49884906491217
 20
62.7742079359639
 30
0.0
 10
60.7381260751975
 20
52.26387064053878
 30
0.0
  0
LEADER
  5
B56
330
1F
100
AcDbEntity
  8
Dimensions & Text
100
AcDbLeader
  3
Dean
 73
     0
 40
4.542605230386053
 41
25.59631382316314
 76
     3
 10
47.68634906491217
 20
71.00395969237583
 30
0.0
 10
42.37620928975326
 20
66.27212521432713
 30
0.0
 10
41.36214102464134
 20
66.27212521432713
 30
0.0
340
B57
  0
MTEXT
  5
B57
102
{ACAD_REACTORS
330
B56
102
}
330
1F
100
AcDbEntity
  8
Dimensions & Text
 62
   140
100
AcDbMText
 10
40.64214102464134
 20
66.27212521432713
 30
0.0
 40
1.439999999999999
 41
0.0
 71
     6
 72
     1
  1
\A1;6 {\H0.7x;\S1/8;}" X 8" LALLY LOCK BEAM PLATE\PBY DEAN COLUMN CO., INC.
 73
     1
 44
1.0
1001
ACAD
1000
MTEXTBEGIN
1070
    73
1070
     1
1070
    44
1040
1.0
1070
    74
1070
     0
1000
MTEXTEND
  0
LEADER
  5
B5A
330
1F
100
AcDbEntity
  8
Dimensions & Text
100
AcDbLeader
  3
Dean
 73
     0
 40
1.517110834371108
 41
9.360896637608966
 76
     3
 10
52.99884906491218
 20
74.87895969237583
 30
0.0
 10
57.7192049532756
 20
72.47232829139109
 30
0.0
 10
58.56782467819534
 20
72.47232829139109
 30
0.0
340
B5B
  0
MTEXT
  5
B5B
102
{ACAD_REACTORS
330
B5A
102
}
330
1F
100
AcDbEntity
  8
Dimensions & Text
 62
   140
100
AcDbMText
 10
59.28782467819534
 20
72.47232829139109
 30
0.0
 40
1.439999999999999
 41
0.0
 71
     4
 72
     1
  1
\A1;(4) 2" X 8"
 73
     1
 44
1.0
1001
ACAD
1000
MTEXTBEGIN
1070
    73
1070
     1
1070
    44
1040
1.0
1070
    74
1070
     0
1000
MTEXTEND
  0
DIMENSION
  5
B5E
102
{ACAD_XDICTIONARY
360
B6C
102
}
102
{ACAD_REACTORS
330
B77
102
}
330
1F
100
AcDbEntity
  8
Dimensions & Text
100
AcDbDimension
  2
*D4
 10
95.8761532131287
 20
19.69307512449362
 30
0.0
 11
95.8761532131287
 21
50.16235560849246
 31
0.0
 70
   160
  1
SEE SECTIONS
 71
     5
 42
58.93588456788219
  3
Dean
100
AcDbAlignedDimension
 13
53.74884906491217
 23
78.62895969237583
 33
0.0
 14
66.74884906491207
 24
19.69307512449363
 34
0.0
 50
90.0
100
AcDbRotatedDimension
1001
ACAD_DSTYLE_DIMINSPECT
1070
   396
1000
100%
1070
   395
1000

1070
   394
1070
    33
1070
   393
1070
     0
  0
LINE
  5
BD8
330
1F
100
AcDbEntity
  8
Concrete
100
AcDbLine
 10
52.49884906491218
 20
35.69307512449363
 30
0.0
 11
74.74884906491206
 21
35.69307512449363
 31
0.0
  0
TEXT
  5
CBD
330
1F
100
AcDbEntity
  8
Text
100
AcDbText
 10
111.8948518203811
 20
-11.42222700011154
 30
0.0
 40
1.1
  1
3 1/2" COLUMN, (4)2X8, 3 1/2" ADJ. BASE, 6 1/8" BEAM PLATE
 72
     1
 11
130.8085504505181
 21
-10.87222700011153
 31
0.0
100
AcDbText
 73
     2
  0
LWPOLYLINE
  5
CBF
330
1F
100
AcDbEntity
  8
Border
100
AcDbPolyline
 90
        4
 70
     1
 43
0.4
 10
-18.21883911590703
 20
-13.47547700011154
 10
-18.21883911590703
 20
96.52452299988851
 10
151.7811608840929
 20
96.52452299988851
 10
151.7811608840929
 20
-13.47547700011154
  0
TEXT
  5
F55
330
1F
100
AcDbEntity
  8
Text
100
AcDbText
 10
110.4797744522955
 20
-9.812848048157718
 30
0.0
 40
1.0
  1
TITLE
  7
ROMANS
 72
     1
 11
112.3815479857198
 21
-9.312848048157718
 31
0.0
100
AcDbText
 73
     2
  0
LWPOLYLINE
  5
F57
330
1F
100
AcDbEntity
  8
Border
100
AcDbPolyline
 90
        3
 70
     0
 10
151.7811608840929
 20
3.889920174710656
 40
0.25
 41
0.25
 10
109.8359400169433
 20
3.889920174710656
 40
0.25
 41
0.25
 10
109.8359400169433
 20
-13.47591468805007
 40
0.0
 41
0.0
  0
LINE
  5
F58
330
1F
100
AcDbEntity
  8
Border
100
AcDbLine
 10
151.7811608840929
 20
-13.47547700011154
 30
0.0
 11
109.8359400169433
 21
-13.47547700011154
 31
0.0
  0
LINE
  5
F59
330
1F
100
AcDbEntity
  8
Border
100
AcDbLine
 10
151.7811608840929
 20
-8.268977000111533
 30
0.0
 11
109.8359400169433
 21
-8.268977000111533
 31
0.0
  0
TEXT
  5
F5A
330
1F
100
AcDbEntity
  8
Text
100
AcDbText
 10
110.4797744522955
 20
-9.812848048157718
 30
0.0
 40
1.0
  1
TITLE
  7
ROMANS
 72
     1
 11
112.3815479857198
 21
-9.312848048157718
 31
0.0
100
AcDbText
 73
     2
  0
MTEXT
  5
F5B
102
{ACAD_XDICTIONARY
360
1ACE
102
}
330
1F
100
AcDbEntity
  8
Text
100
AcDbMText
 10
138.3604120767648
 20
2.530030419916101
 30
0.0
 40
1.0
 41
30.40901736352106
 71
     2
 72
     5
  1
DEAN COLUMN CO., INC.\PPO BOX 4179\PQUEENSBURY, NY 12804\P(P) 800-442-3455\P(F) 240-209-5860\PWWW.DEANCOLUMN.COM
  7
ROMANS
 73
     1
 44
1.0
1001
ACAD
1000
MTEXTBEGIN
1070
    73
1070
     1
1070
    44
1040
1.0
1070
    74
1070
     0
1000
MTEXTEND
  0
LINE
  5
19A2
330
1F
100
AcDbEntity
  8
Wood
100
AcDbLine
 10
47.74884906491218
 20
78.62895969237583
 30
0.0
 11
47.74884906491218
 21
71.12895969237583
 31
0.0
  0
LINE
  5
19A3
330
1F
100
AcDbEntity
  8
Wood
100
AcDbLine
 10
47.74884906491218
 20
71.12895969237583
 30
0.0
 11
49.24884906491218
 21
71.12895969237583
 31
0.0
  0
LINE
  5
19A4
330
1F
100
AcDbEntity
  8
Wood
100
AcDbLine
 10
49.24884906491218
 20
71.12895969237583
 30
0.0
 11
49.24884906491218
 21
78.62895969237583
 31
0.0
  0
LINE
  5
19A5
330
1F
100
AcDbEntity
  8
Wood
100
AcDbLine
 10
49.24884906491218
 20
78.62895969237583
 30
0.0
 11
47.74884906491218
 21
78.62895969237583
 31
0.0
  0
LINE
  5
19A6
330
1F
100
AcDbEntity
  8
Wood
100
AcDbLine
 10
49.24884906491218
 20
78.62895969237583
 30
0.0
 11
49.24884906491218
 21
71.12895969237583
 31
0.0
  0
LINE
  5
19A7
330
1F
100
AcDbEntity
  8
Wood
100
AcDbLine
 10
49.24884906491218
 20
71.12895969237583
 30
0.0
 11
50.74884906491218
 21
71.12895969237583
 31
0.0
  0
LINE
  5
19A8
330
1F
100
AcDbEntity
  8
Wood
100
AcDbLine
 10
50.74884906491218
 20
71.12895969237583
 30
0.0
 11
50.74884906491218
 21
78.62895969237583
 31
0.0
  0
LINE
  5
19A9
330
1F
100
AcDbEntity
  8
Wood
100
AcDbLine
 10
50.74884906491218
 20
78.62895969237583
 30
0.0
 11
49.24884906491218
 21
78.62895969237583
 31
0.0
  0
LINE
  5
19AA
330
1F
100
AcDbEntity
  8
Wood
100
AcDbLine
 10
50.74884906491218
 20
78.62895969237583
 30
0.0
 11
50.74884906491218
 21
71.12895969237583
 31
0.0
  0
LINE
  5
19AB
330
1F
100
AcDbEntity
  8
Wood
100
AcDbLine
 10
50.74884906491218
 20
71.12895969237583
 30
0.0
 11
52.24884906491218
 21
71.12895969237583
 31
0.0
  0
LINE
  5
19AC
330
1F
100
AcDbEntity
  8
Wood
100
AcDbLine
 10
52.24884906491218
 20
71.12895969237583
 30
0.0
 11
52.24884906491218
 21
78.62895969237583
 31
0.0
  0
LINE
  5
19AD
330
1F
100
AcDbEntity
  8
Wood
100
AcDbLine
 10
52.24884906491218
 20
78.62895969237583
 30
0.0
 11
50.74884906491218
 21
78.62895969237583
 31
0.0
  0
LINE
  5
19AE
330
1F
100
AcDbEntity
  8
Wood
100
AcDbLine
 10
52.24884906491218
 20
71.12895969237583
 30
0.0
 11
53.74884906491217
 21
71.12895969237583
 31
0.0
  0
LINE
  5
19AF
330
1F
100
AcDbEntity
  8
Wood
100
AcDbLine
 10
53.74884906491217
 20
71.12895969237583
 30
0.0
 11
53.74884906491217
 21
78.62895969237583
 31
0.0
  0
LINE
  5
19B0
330
1F
100
AcDbEntity
  8
Wood
100
AcDbLine
 10
53.74884906491217
 20
78.62895969237583
 30
0.0
 11
52.24884906491218
 21
78.62895969237583
 31
0.0
  0
LINE
  5
19B1
330
1F
100
AcDbEntity
  8
Plates
100
AcDbLine
 10
47.68634906491217
 20
70.87895969237583
 30
0.0
 11
53.81134906491218
 21
70.87895969237583
 31
0.0
  0
LINE
  5
19B2
330
1F
100
AcDbEntity
  8
Plates
100
AcDbLine
 10
53.81134906491218
 20
70.87895969237583
 30
0.0
 11
53.81134906491218
 21
71.12895969237583
 31
0.0
  0
LINE
  5
19B3
330
1F
100
AcDbEntity
  8
Plates
100
AcDbLine
 10
53.81134906491218
 20
71.12895969237583
 30
0.0
 11
47.68634906491217
 21
71.12895969237583
 31
0.0
  0
LINE
  5
19B4
330
1F
100
AcDbEntity
  8
Plates
100
AcDbLine
 10
47.68634906491217
 20
71.12895969237583
 30
0.0
 11
47.68634906491217
 21
70.87895969237583
 31
0.0
  0
ENDSEC
  0
SECTION
  2
OBJECTS
  0
DICTIONARY
  5
C
330
0
100
AcDbDictionary
281
     1
  3
ACAD_2007HEADERVARS_RT
350
1AD2
  3
ACAD_COLOR
350
C9
  3
ACAD_GROUP
350
D
  3
ACAD_IMAGE_DICT
350
C5D
  3
ACAD_IMAGE_VARS
350
C5E
  3
ACAD_LAYOUT
350
1A
  3
ACAD_MATERIAL
350
C8
  3
ACAD_MLEADERSTYLE
350
2EC
  3
ACAD_MLINESTYLE
350
17
  3
ACAD_PLOTSETTINGS
350
19
  3
ACAD_PLOTSTYLENAME
350
E
  3
ACAD_SCALELIST
350
2CA
  3
ACAD_TABLESTYLE
350
123
  3
ACAD_VISUALSTYLE
350
296
  3
ACDB_RECOMPOSE_DATA
350
1AD0
  3
AcDbVariableDictionary
350
9E
  3
AcmDictionary
350
63
  3
AMG
350
49
  3
AMGSNAPSETTINGS
350
3C4
  3
DWGPROPS
350
1AD1
  0
DICTIONARY
  5
DD2
330
8
100
AcDbDictionary
280
     1
281
     1
  0
DICTIONARY
  5
8FD
330
2
100
AcDbDictionary
280
     1
281
     1
  3
ACAD_LAYERSTATES
360
8FE
  0
DICTIONARY
  5
3DC
330
10
100
AcDbDictionary
280
     1
281
     1
  3
ADSK_XREC_LAYER_RECONCILED
360
3DD
  0
DICTIONARY
  5
3DE
330
3D2
100
AcDbDictionary
280
     1
281
     1
  3
ADSK_XREC_LAYER_RECONCILED
360
3DF
  0
DICTIONARY
  5
3E0
330
3D4
100
AcDbDictionary
280
     1
281
     1
  3
ADSK_XREC_LAYER_RECONCILED
360
3E1
  0
DICTIONARY
  5
3E2
330
3D5
100
AcDbDictionary
280
     1
281
     1
  3
ADSK_XREC_LAYER_RECONCILED
360
3E3
  0
DICTIONARY
  5
3E4
330
3D6
100
AcDbDictionary
280
     1
281
     1
  3
ADSK_XREC_LAYER_RECONCILED
360
3E5
  0
DICTIONARY
  5
CA6
330
CA5
100
AcDbDictionary
280
     1
281
     1
  0
DICTIONARY
  5
CA8
330
CA7
100
AcDbDictionary
280
     1
281
     1
  0
DICTIONARY
  5
99
330
1F
100
AcDbDictionary
280
     1
281
     1
  3
ACAD_SORTENTS
360
429
  0
DICTIONARY
  5
627
330
619
100
AcDbDictionary
280
     1
281
     1
  3
ACAD_DIMASSOC
360
632
  0
DICTIONARY
  5
870
330
86F
100
AcDbDictionary
280
     1
281
     1
  3
ACAD_DIMASSOC
360
871
  0
DICTIONARY
  5
960
330
95E
100
AcDbDictionary
280
     1
281
     1
  3
ACAD_DIMASSOC
360
961
  0
DICTIONARY
  5
B51
330
B4F
100
AcDbDictionary
280
     1
281
     1
  3
ACAD_DIMASSOC
360
B52
  0
DICTIONARY
  5
B54
330
B53
100
AcDbDictionary
280
     1
281
     1
  3
ACAD_DIMASSOC
360
B55
  0
DICTIONARY
  5
B6C
330
B5E
100
AcDbDictionary
280
     1
281
     1
  3
ACAD_DIMASSOC
360
B77
  0
DICTIONARY
  5
1ACE
330
F5B
100
AcDbDictionary
280
     1
281
     1
  3
ACAD_MTEXT_2008_RT
360
1ACF
  0
DICTIONARY
  5
1AD2
102
{ACAD_REACTORS
330
C
102
}
330
C
100
AcDbDictionary
281
     1
  3
DIMARCSYM
350
1AD3
  3
DIMLTEX1
350
1AD5
  3
DIMLTEX2
350
1AD6
  3
DIMLTYPE
350
1AD4
  0
DICTIONARY
  5
C9
102
{ACAD_REACTORS
330
C
102
}
330
C
100
AcDbDictionary
281
     1
  0
DICTIONARY
  5
D
102
{ACAD_REACTORS
330
C
102
}
330
C
100
AcDbDictionary
281
     1
  0
DICTIONARY
  5
C5D
102
{ACAD_REACTORS
330
C
102
}
330
C
100
AcDbDictionary
281
     1
  3
logo_op_125x133
350
C5F
  0
RASTERVARIABLES
  5
C5E
102
{ACAD_REACTORS
330
C
102
}
330
C
100
AcDbRasterVariables
 90
        0
 70
     1
 71
     1
 72
     5
  0
DICTIONARY
  5
1A
102
{ACAD_REACTORS
330
C
102
}
330
C
100
AcDbDictionary
281
     1
  3
Layout1
350
1E
  3
Layout2
350
26
  3
Model
350
22
  0
DICTIONARY
  5
C8
102
{ACAD_REACTORS
330
C
102
}
330
C
100
AcDbDictionary
281
     1
  3
ByBlock
350
294
  3
ByLayer
350
293
  3
Global
350
295
  0
DICTIONARY
  5
2EC
102
{ACAD_REACTORS
330
C
102
}
330
C
100
AcDbDictionary
281
     1
  3
Standard
350
2ED
  0
DICTIONARY
  5
17
102
{ACAD_REACTORS
330
C
102
}
330
C
100
AcDbDictionary
281
     1
  3
Standard
350
18
  0
DICTIONARY
  5
19
102
{ACAD_REACTORS
330
C
102
}
330
C
100
AcDbDictionary
281
     1
  0
ACDBDICTIONARYWDFLT
  5
E
102
{ACAD_REACTORS
330
C
102
}
330
C
100
AcDbDictionary
281
     1
  3
Normal
350
F
100
AcDbDictionaryWithDefault
340
F
  0
DICTIONARY
  5
2CA
102
{ACAD_REACTORS
330
C
102
}
330
C
100
AcDbDictionary
281
     1
  3
A0
350
2CB
  3
A1
350
2CC
  3
A2
350
2CD
  3
A3
350
2CE
  3
A4
350
2CF
  3
A5
350
2D0
  3
A6
350
2D1
  3
A7
350
2D2
  3
A8
350
2D3
  3
A9
350
2D4
  3
B0
350
2D5
  3
B1
350
2D6
  3
B2
350
2D7
  3
B3
350
2D8
  3
B4
350
2D9
  3
B5
350
2DA
  3
B6
350
2DB
  3
B7
350
2DC
  3
B8
350
2DD
  3
B9
350
2DE
  3
C0
350
2DF
  3
C1
350
2E0
  3
C2
350
2E1
  3
C3
350
2E2
  3
C4
350
2E3
  3
C5
350
2E4
  3
C6
350
2E5
  3
C7
350
2E6
  3
C8
350
2E7
  3
C9
350
2E8
  3
D0
350
2E9
  3
D1
350
2EA
  3
D2
350
2EB
  0
DICTIONARY
  5
123
102
{ACAD_REACTORS
330
C
102
}
330
C
100
AcDbDictionary
281
     1
  3
Standard
350
124
  0
DICTIONARY
  5
296
102
{ACAD_REACTORS
330
C
102
}
330
C
100
AcDbDictionary
281
     1
  3
2dWireframe
350
29C
  3
3D Hidden
350
29E
  3
3dWireframe
350
29D
  3
Basic
350
29B
  3
Brighten
350
2A2
  3
ColorChange
350
2A6
  3
Conceptual
350
29F
  3
Dim
350
2A1
  3
EdgeColorOff
350
370
  3
Facepattern
350
2A5
  3
Flat
350
297
  3
FlatWithEdges
350
298
  3
Gouraud
350
299
  3
GouraudWithEdges
350
29A
  3
JitterOff
350
36E
  3
Linepattern
350
2A4
  3
OverhangOff
350
36F
  3
Realistic
350
2A0
  3
Thicken
350
2A3
  0
XRECORD
  5
1AD0
102
{ACAD_REACTORS
330
C
102
}
330
C
100
AcDbXrecord
280
     1
 90
        1
330
124
330
F5B
  0
DICTIONARY
  5
9E
102
{ACAD_REACTORS
330
C
102
}
330
C
100
AcDbDictionary
281
     1
  3
CANNOSCALE
350
310
  3
CMLEADERSTYLE
350
30E
  3
CTABLESTYLE
350
144
  3
DIMASSOC
350
A0
  3
INDEXCTL
350
9F
  3
LAYEREVAL
350
36B
  3
LAYERNOTIFY
350
36C
  3
LIGHTINGUNITS
350
311
  3
MSLTSCALE
350
30F
  3
SORTENTS
350
E0A
  3
XCLIPFRAME
350
1ACC
  0
DICTIONARY
  5
63
102
{ACAD_REACTORS
330
C
102
}
330
C
100
AcDbDictionary
281
     1
  3
AcmStdDictionary
350
69
  3
AMDTSECTSYM_ARROWCOLOR
350
12C
  0
DICTIONARY
  5
49
102
{ACAD_REACTORS
330
C
102
}
330
C
100
AcDbDictionary
281
     1
  0
DICTIONARY
  5
3C4
102
{ACAD_REACTORS
330
C
102
}
330
C
100
AcDbDictionary
281
     1
  0
XRECORD
  5
1AD1
102
{ACAD_REACTORS
330
C
102
}
330
C
100
AcDbXrecord
280
     1
  1
DWGPROPS COOKIE
  2

  3

  4

  6

  7

  8
dguiffre
  9

300
AmdtFileType=84
301
=
302
=
303
=
304
=
305
=
306
=
307
=
308
=
309
=
 40
0.0701180902777778
 41
2455874.83938088
 42
2455885.725533044
  1

 90
        1
  0
DICTIONARY
  5
8FE
102
{ACAD_REACTORS
330
8FD
102
}
330
8FD
100
AcDbDictionary
281
     1
  0
XRECORD
  5
3DD
102
{ACAD_REACTORS
330
3DC
102
}
330
3DC
100
AcDbXrecord
280
     1
290
     1
  0
XRECORD
  5
3DF
102
{ACAD_REACTORS
330
3DE
102
}
330
3DE
100
AcDbXrecord
280
     1
290
     1
  0
XRECORD
  5
3E1
102
{ACAD_REACTORS
330
3E0
102
}
330
3E0
100
AcDbXrecord
280
     1
290
     1
  0
XRECORD
  5
3E3
102
{ACAD_REACTORS
330
3E2
102
}
330
3E2
100
AcDbXrecord
280
     1
290
     1
  0
XRECORD
  5
3E5
102
{ACAD_REACTORS
330
3E4
102
}
330
3E4
100
AcDbXrecord
280
     1
290
     1
  0
SORTENTSTABLE
  5
429
102
{ACAD_REACTORS
330
99
102
}
330
99
100
AcDbSortentsTable
330
1F
331
B50
  5
B53
331
82A
  5
82C
331
75F
  5
7A3
331
A4D
  5
9B1
331
BD8
  5
3DA
331
42B
  5
478
331
68A
  5
68C
331
912
  5
913
331
916
  5
917
331
47A
  5
47C
331
9B0
  5
9B2
331
3D7
  5
3D8
331
A2C
  5
A93
331
75E
  5
75F
331
3DB
  5
46E
331
918
  5
91A
331
42A
  5
428
331
B53
  5
B56
331
911
  5
912
331
689
  5
68A
331
B57
  5
B5A
331
915
  5
916
331
68D
  5
754
331
B5B
  5
B5E
331
476
  5
3D7
331
479
  5
47B
331
759
  5
75C
331
619
  5
689
331
75D
  5
75E
331
3DA
  5
42A
331
82C
  5
86F
331
B56
  5
B57
331
B5A
  5
B5B
331
B4F
  5
B50
331
914
  5
915
331
68C
  5
68D
331
B5E
  5
BD8
331
478
  5
47A
331
95F
  5
9AE
331
754
  5
758
331
480
  5
479
331
758
  5
759
331
7A3
  5
82A
331
9B2
  5
A4D
331
75C
  5
75D
331
A4E
  5
A2C
331
428
  5
42B
331
91A
  5
95E
331
9AF
  5
9B0
331
90F
  5
911
331
913
  5
914
331
917
  5
918
331
86F
  5
90F
331
47B
  5
619
331
95E
  5
95F
331
757
  5
755
331
3D8
  5
3DB
331
9B1
  5
9D3
  0
DIMASSOC
  5
632
102
{ACAD_REACTORS
330
627
102
}
330
627
100
AcDbDimAssoc
330
619
 90
        3
 70
     0
 71
     0
  1
AcDbOsnapPointRef
 72
    13
331
428
 73
     2
 91
        0
 40
0.0
 10
0.0
 20
0.0
 30
2.000000000000000E+50
 75
     0
  1
AcDbOsnapPointRef
 72
     1
331
428
 73
     2
 91
        0
 40
1.0
 10
0.0
 20
0.0
 30
2.000000000000000E+50
 75
     0
  0
DIMASSOC
  5
871
102
{ACAD_REACTORS
330
870
102
}
330
870
100
AcDbDimAssoc
330
86F
 90
        1
 70
     0
 71
     0
  1
AcDbOsnapPointRef
 72
     2
331
47B
 73
     2
 91
        0
 40
0.5
 10
0.0
 20
0.0
 30
0.0
 75
     0
  0
DIMASSOC
  5
961
102
{ACAD_REACTORS
330
960
102
}
330
960
100
AcDbDimAssoc
330
95E
 90
        1
 70
     0
 71
     0
  1
AcDbOsnapPointRef
 72
     2
331
915
 73
     2
 91
        4
 40
0.5
 10
0.0
 20
0.0
 30
0.0
 75
     0
  0
DIMASSOC
  5
B52
102
{ACAD_REACTORS
330
B51
102
}
330
B51
100
AcDbDimAssoc
330
B4F
 90
        1
 70
     0
 71
     0
  1
AcDbOsnapPointRef
 72
     2
331
9AF
 73
     2
 91
        0
 40
0.5
 10
0.0
 20
0.0
 30
0.0
 75
     0
  0
DIMASSOC
  5
B55
102
{ACAD_REACTORS
330
B54
102
}
330
B54
100
AcDbDimAssoc
330
B53
 90
        1
 70
     0
 71
     0
  1
AcDbOsnapPointRef
 72
     2
331
A4D
 73
     2
 91
        0
 40
0.4999999999999999
 10
0.0
 20
0.0
 30
0.0
 75
     0
  0
DIMASSOC
  5
B77
102
{ACAD_REACTORS
330
B6C
102
}
330
B6C
100
AcDbDimAssoc
330
B5E
 90
        2
 70
     0
 71
     0
  1
AcDbOsnapPointRef
 72
    13
331
42B
 73
     2
 91
        0
 40
0.0
 10
0.0
 20
0.0
 30
2.000000000000000E+50
 75
     0
  0
XRECORD
  5
1ACF
102
{ACAD_REACTORS
330
1ACE
102
}
330
1ACE
100
AcDbXrecord
280
     1
 40
398482.0
  1
\pxql;DEAN COLUMN CO., INC.\PPO BOX 4179\PQUEENSBURY, NY 12804\P(P) 800-442-3455\P(F) 240-209-5860\PWWW.DEANCOLUMN.COM
  0
XRECORD
  5
1AD3
102
{ACAD_REACTORS
330
1AD2
102
}
330
1AD2
100
AcDbXrecord
280
     1
 70
     1
  0
XRECORD
  5
1AD5
102
{ACAD_REACTORS
330
1AD2
102
}
330
1AD2
100
AcDbXrecord
280
     1
340
14
  0
XRECORD
  5
1AD6
102
{ACAD_REACTORS
330
1AD2
102
}
330
1AD2
100
AcDbXrecord
280
     1
340
14
  0
XRECORD
  5
1AD4
102
{ACAD_REACTORS
330
1AD2
102
}
330
1AD2
100
AcDbXrecord
280
     1
340
14
  0
IMAGEDEF
  5
C5F
102
{ACAD_REACTORS
330
C5D
102
}
330
C5D
100
AcDbRasterImageDef
 90
        0
  1
C:\Users\dguiffre\Desktop\logo_op_125x133.jpg
 10
118.0
 20
125.0
 11
0.0084745762711864
 21
0.0084745762711864
280
     1
281
     0
  0
LAYOUT
  5
1E
102
{ACAD_XDICTIONARY
360
1AD7
102
}
102
{ACAD_REACTORS
330
1A
102
}
330
1A
100
AcDbPlotSettings
  1

  2

  4

  6

 40
0.0
 41
0.0
 42
0.0
 43
0.0
 44
0.0
 45
0.0
 46
0.0
 47
0.0
 48
0.0
 49
0.0
140
0.0
141
0.0
142
1.0
143
1.0
 70
   688
 72
     0
 73
     0
 74
     5
  7
monochrome.ctb
 75
    16
147
1.0
148
0.0
149
0.0
100
AcDbLayout
  1
Layout1
 70
     1
 71
     1
 10
0.0
 20
0.0
 11
12.0
 21
9.0
 12
0.0
 22
0.0
 32
0.0
 14
1.000000000000000E+20
 24
1.000000000000000E+20
 34
1.000000000000000E+20
 15
-1.000000000000000E+20
 25
-1.000000000000000E+20
 35
-1.000000000000000E+20
146
0.0
 13
0.0
 23
0.0
 33
0.0
 16
1.0
 26
0.0
 36
0.0
 17
0.0
 27
1.0
 37
0.0
 76
     0
330
1B
  0
LAYOUT
  5
26
102
{ACAD_XDICTIONARY
360
1ADB
102
}
102
{ACAD_REACTORS
330
1A
102
}
330
1A
100
AcDbPlotSettings
  1

  2

  4

  6

 40
0.0
 41
0.0
 42
0.0
 43
0.0
 44
0.0
 45
0.0
 46
0.0
 47
0.0
 48
0.0
 49
0.0
140
0.0
141
0.0
142
1.0
143
1.0
 70
   688
 72
     0
 73
     0
 74
     5
  7
monochrome.ctb
 75
    16
147
1.0
148
0.0
149
0.0
100
AcDbLayout
  1
Layout2
 70
     1
 71
     2
 10
0.0
 20
0.0
 11
12.0
 21
9.0
 12
0.0
 22
0.0
 32
0.0
 14
0.0
 24
0.0
 34
0.0
 15
0.0
 25
0.0
 35
0.0
146
0.0
 13
0.0
 23
0.0
 33
0.0
 16
1.0
 26
0.0
 36
0.0
 17
0.0
 27
1.0
 37
0.0
 76
     0
330
23
  0
LAYOUT
  5
22
102
{ACAD_XDICTIONARY
360
1AD9
102
}
102
{ACAD_REACTORS
330
1A
102
}
330
1A
100
AcDbPlotSettings
  1

  2
Microsoft XPS Document Writer
  4
Letter
  6

 40
3.174999952316284
 41
3.174999952316284
 42
3.175003051757812
 43
3.17498779296875
 44
215.8999938964844
 45
279.3999938964844
 46
0.0
 47
0.0
 48
0.0
 49
0.0
140
0.0
141
0.0
142
1.0
143
6.849119936724107
 70
 11952
 72
     0
 73
     1
 74
     0
  7
monochrome.ctb
 75
     0
147
0.1460041595472913
148
0.9590289534723908
149
-206.7291300837655
100
AcDbLayout
  1
Model
 70
     1
 71
     0
 10
0.0
 20
0.0
 11
12.0
 21
9.0
 12
0.0
 22
0.0
 32
0.0
 14
0.0
 24
0.0
 34
0.0
 15
0.0
 25
0.0
 35
0.0
146
0.0
 13
0.0
 23
0.0
 33
0.0
 16
1.0
 26
0.0
 36
0.0
 17
0.0
 27
1.0
 37
0.0
 76
     0
330
1F
331
291
1001
ACAD_PSEXT
1000
Microsoft XPS Document Writer
1000
Microsoft XPS Document Writer
1000
XPSPort:
1000

1070
     0
  0
MATERIAL
  5
294
102
{ACAD_XDICTIONARY
360
1AE0
102
}
102
{ACAD_REACTORS
330
C8
102
}
330
C8
100
AcDbMaterial
  1
ByBlock
 73
     1
 78
     1
172
     1
176
     1
270
     1
274
     1
  0
MATERIAL
  5
293
102
{ACAD_XDICTIONARY
360
1ADE
102
}
102
{ACAD_REACTORS
330
C8
102
}
330
C8
100
AcDbMaterial
  1
ByLayer
 73
     1
 78
     1
172
     1
176
     1
270
     1
274
     1
  0
MATERIAL
  5
295
102
{ACAD_XDICTIONARY
360
1AE2
102
}
102
{ACAD_REACTORS
330
C8
102
}
330
C8
100
AcDbMaterial
  1
Global
 73
     1
 78
     1
172
     1
176
     1
270
     1
274
     1
  0
MLEADERSTYLE
  5
2ED
102
{ACAD_REACTORS
330
2EC
102
}
330
2EC
100
AcDbMLeaderStyle
170
     2
171
     1
172
     0
 90
        2
 40
0.0
 41
0.0
173
     1
 91
-1056964608
340
14
 92
       -2
290
     1
 42
0.09
291
     1
 43
0.36
  3
Standard
 44
0.18
300

342
11
174
     1
178
     6
175
     1
176
     0
 93
-1056964608
 45
0.18
292
     0
297
     0
 46
0.18
 94
-1056964608
 47
1.0
 49
1.0
140
1.0
293
     1
141
0.0
294
     1
177
     0
142
1.0
295
     0
296
     0
143
0.125
1001
ACAD_MLEADERVER
1070
     2
  0
MLINESTYLE
  5
18
102
{ACAD_REACTORS
330
17
102
}
330
17
100
AcDbMlineStyle
  2
STANDARD
 70
     0
  3

 62
   256
 51
90.0
 52
90.0
 71
     2
 49
0.5
 62
   256
  6
BYLAYER
 49
-0.5
 62
   256
  6
BYLAYER
  0
ACDBPLACEHOLDER
  5
F
102
{ACAD_REACTORS
330
E
102
}
330
E
  0
SCALE
  5
2CB
102
{ACAD_REACTORS
330
2CA
102
}
330
2CA
100
AcDbScale
 70
     0
300
1:1
140
1.0
141
1.0
290
     1
  0
SCALE
  5
2CC
102
{ACAD_REACTORS
330
2CA
102
}
330
2CA
100
AcDbScale
 70
     0
300
1:2
140
1.0
141
2.0
290
     0
  0
SCALE
  5
2CD
102
{ACAD_REACTORS
330
2CA
102
}
330
2CA
100
AcDbScale
 70
     0
300
1:4
140
1.0
141
4.0
290
     0
  0
SCALE
  5
2CE
102
{ACAD_REACTORS
330
2CA
102
}
330
2CA
100
AcDbScale
 70
     0
300
1:5
140
1.0
141
5.0
290
     0
  0
SCALE
  5
2CF
102
{ACAD_REACTORS
330
2CA
102
}
330
2CA
100
AcDbScale
 70
     0
300
1:8
140
1.0
141
8.0
290
     0
  0
SCALE
  5
2D0
102
{ACAD_REACTORS
330
2CA
102
}
330
2CA
100
AcDbScale
 70
     0
300
1:10
140
1.0
141
10.0
290
     0
  0
SCALE
  5
2D1
102
{ACAD_REACTORS
330
2CA
102
}
330
2CA
100
AcDbScale
 70
     0
300
1:16
140
1.0
141
16.0
290
     0
  0
SCALE
  5
2D2
102
{ACAD_REACTORS
330
2CA
102
}
330
2CA
100
AcDbScale
 70
     0
300
1:20
140
1.0
141
20.0
290
     0
  0
SCALE
  5
2D3
102
{ACAD_REACTORS
330
2CA
102
}
330
2CA
100
AcDbScale
 70
     0
300
1:30
140
1.0
141
30.0
290
     0
  0
SCALE
  5
2D4
102
{ACAD_REACTORS
330
2CA
102
}
330
2CA
100
AcDbScale
 70
     0
300
1:40
140
1.0
141
40.0
290
     0
  0
SCALE
  5
2D5
102
{ACAD_REACTORS
330
2CA
102
}
330
2CA
100
AcDbScale
 70
     0
300
1:50
140
1.0
141
50.0
290
     0
  0
SCALE
  5
2D6
102
{ACAD_REACTORS
330
2CA
102
}
330
2CA
100
AcDbScale
 70
     0
300
1:100
140
1.0
141
100.0
290
     0
  0
SCALE
  5
2D7
102
{ACAD_REACTORS
330
2CA
102
}
330
2CA
100
AcDbScale
 70
     0
300
2:1
140
2.0
141
1.0
290
     0
  0
SCALE
  5
2D8
102
{ACAD_REACTORS
330
2CA
102
}
330
2CA
100
AcDbScale
 70
     0
300
4:1
140
4.0
141
1.0
290
     0
  0
SCALE
  5
2D9
102
{ACAD_REACTORS
330
2CA
102
}
330
2CA
100
AcDbScale
 70
     0
300
8:1
140
8.0
141
1.0
290
     0
  0
SCALE
  5
2DA
102
{ACAD_REACTORS
330
2CA
102
}
330
2CA
100
AcDbScale
 70
     0
300
10:1
140
10.0
141
1.0
290
     0
  0
SCALE
  5
2DB
102
{ACAD_REACTORS
330
2CA
102
}
330
2CA
100
AcDbScale
 70
     0
300
100:1
140
100.0
141
1.0
290
     0
  0
SCALE
  5
2DC
102
{ACAD_REACTORS
330
2CA
102
}
330
2CA
100
AcDbScale
 70
     0
300
1/128" = 1'-0"
140
0.0078125
141
12.0
290
     0
  0
SCALE
  5
2DD
102
{ACAD_REACTORS
330
2CA
102
}
330
2CA
100
AcDbScale
 70
     0
300
1/64" = 1'-0"
140
0.015625
141
12.0
290
     0
  0
SCALE
  5
2DE
102
{ACAD_REACTORS
330
2CA
102
}
330
2CA
100
AcDbScale
 70
     0
300
1/32" = 1'-0"
140
0.03125
141
12.0
290
     0
  0
SCALE
  5
2DF
102
{ACAD_REACTORS
330
2CA
102
}
330
2CA
100
AcDbScale
 70
     0
300
1/16" = 1'-0"
140
0.0625
141
12.0
290
     0
  0
SCALE
  5
2E0
102
{ACAD_REACTORS
330
2CA
102
}
330
2CA
100
AcDbScale
 70
     0
300
3/32" = 1'-0"
140
0.09375
141
12.0
290
     0
  0
SCALE
  5
2E1
102
{ACAD_REACTORS
330
2CA
102
}
330
2CA
100
AcDbScale
 70
     0
300
1/8" = 1'-0"
140
0.125
141
12.0
290
     0
  0
SCALE
  5
2E2
102
{ACAD_REACTORS
330
2CA
102
}
330
2CA
100
AcDbScale
 70
     0
300
3/16" = 1'-0"
140
0.1875
141
12.0
290
     0
  0
SCALE
  5
2E3
102
{ACAD_REACTORS
330
2CA
102
}
330
2CA
100
AcDbScale
 70
     0
300
1/4" = 1'-0"
140
0.25
141
12.0
290
     0
  0
SCALE
  5
2E4
102
{ACAD_REACTORS
330
2CA
102
}
330
2CA
100
AcDbScale
 70
     0
300
3/8" = 1'-0"
140
0.375
141
12.0
290
     0
  0
SCALE
  5
2E5
102
{ACAD_REACTORS
330
2CA
102
}
330
2CA
100
AcDbScale
 70
     0
300
1/2" = 1'-0"
140
0.5
141
12.0
290
     0
  0
SCALE
  5
2E6
102
{ACAD_REACTORS
330
2CA
102
}
330
2CA
100
AcDbScale
 70
     0
300
3/4" = 1'-0"
140
0.75
141
12.0
290
     0
  0
SCALE
  5
2E7
102
{ACAD_REACTORS
330
2CA
102
}
330
2CA
100
AcDbScale
 70
     0
300
1" = 1'-0"
140
1.0
141
12.0
290
     0
  0
SCALE
  5
2E8
102
{ACAD_REACTORS
330
2CA
102
}
330
2CA
100
AcDbScale
 70
     0
300
1-1/2" = 1'-0"
140
1.5
141
12.0
290
     0
  0
SCALE
  5
2E9
102
{ACAD_REACTORS
330
2CA
102
}
330
2CA
100
AcDbScale
 70
     0
300
3" = 1'-0"
140
3.0
141
12.0
290
     0
  0
SCALE
  5
2EA
102
{ACAD_REACTORS
330
2CA
102
}
330
2CA
100
AcDbScale
 70
     0
300
6" = 1'-0"
140
6.0
141
12.0
290
     0
  0
SCALE
  5
2EB
102
{ACAD_REACTORS
330
2CA
102
}
330
2CA
100
AcDbScale
 70
     0
300
1'-0" = 1'-0"
140
12.0
141
12.0
290
     0
  0
TABLESTYLE
  5
124
102
{ACAD_XDICTIONARY
360
30B
102
}
102
{ACAD_REACTORS
330
123
102
}
330
123
100
AcDbTableStyle
  3
Standard
 70
     0
 71
     0
 40
0.06
 41
0.06
280
     0
281
     0
  7
STANDARD
140
0.18
170
     2
 62
     0
 63
     7
283
     0
274
    -2
284
     1
 64
     0
275
    -2
285
     1
 65
     0
276
    -2
286
     1
 66
     0
277
    -2
287
     1
 67
     0
278
    -2
288
     1
 68
     0
279
    -2
289
     1
 69
     0
  7
STANDARD
140
0.25
170
     5
 62
     0
 63
     7
283
     0
274
    -2
284
     1
 64
     0
275
    -2
285
     1
 65
     0
276
    -2
286
     1
 66
     0
277
    -2
287
     1
 67
     0
278
    -2
288
     1
 68
     0
279
    -2
289
     1
 69
     0
  7
STANDARD
140
0.18
170
     5
 62
     0
 63
     7
283
     0
274
    -2
284
     1
 64
     0
275
    -2
285
     1
 65
     0
276
    -2
286
     1
 66
     0
277
    -2
287
     1
 67
     0
278
    -2
288
     1
 68
     0
279
    -2
289
     1
 69
     0
  0
VISUALSTYLE
  5
29C
102
{ACAD_XDICTIONARY
360
1AEE
102
}
102
{ACAD_REACTORS
330
296
102
}
330
296
100
AcDbVisualStyle
  2
2dWireframe
 70
     4
 71
     0
 72
     2
 73
     0
 90
        0
 40
-0.6
 41
-30.0
 62
     5
 63
     7
 74
     1
 91
        4
 64
     7
 65
   257
 75
     1
175
     1
 42
1.0
 92
        0
 66
   257
 43
1.0
 76
     1
 77
     6
 78
     2
 67
     7
 79
     5
170
     0
171
     0
290
     0
174
     0
 93
        1
 44
0.0
173
     0
291
     0
 45
0.0
1001
ACAD
1000
AcDbSavedByObjectVersion
1070
     0
  0
VISUALSTYLE
  5
29E
102
{ACAD_XDICTIONARY
360
1AF2
102
}
102
{ACAD_REACTORS
330
296
102
}
330
296
100
AcDbVisualStyle
  2
3D Hidden
 70
     6
 71
     1
 72
     2
 73
     2
 90
        0
 40
-0.6
 41
-30.0
 62
     5
 63
     7
 74
     2
 91
        2
 64
     7
 65
   257
 75
     2
175
     1
 42
40.0
 92
        0
 66
   257
 43
1.0
 76
     1
 77
     6
 78
     2
 67
     7
 79
     3
170
     0
171
     0
290
     0
174
     0
 93
        1
 44
0.0
173
     0
291
     0
 45
0.0
1001
ACAD
1000
AcDbSavedByObjectVersion
1070
     0
  0
VISUALSTYLE
  5
29D
102
{ACAD_XDICTIONARY
360
1AF0
102
}
102
{ACAD_REACTORS
330
296
102
}
330
296
100
AcDbVisualStyle
  2
3dWireframe
 70
     5
 71
     0
 72
     2
 73
     0
 90
        0
 40
-0.6
 41
-30.0
 62
     5
 63
     7
 74
     1
 91
        4
 64
     7
 65
   257
 75
     1
175
     1
 42
1.0
 92
        0
 66
   257
 43
1.0
 76
     1
 77
     6
 78
     2
 67
     7
 79
     5
170
     0
171
     0
290
     0
174
     0
 93
        1
 44
0.0
173
     0
291
     0
 45
0.0
1001
ACAD
1000
AcDbSavedByObjectVersion
1070
     0
  0
VISUALSTYLE
  5
29B
102
{ACAD_XDICTIONARY
360
1AEC
102
}
102
{ACAD_REACTORS
330
296
102
}
330
296
100
AcDbVisualStyle
  2
Basic
 70
     7
 71
     1
 72
     0
 73
     1
 90
        0
 40
-0.6
 41
-30.0
 62
     5
 63
     7
 74
     0
 91
        4
 64
     7
 65
   257
 75
     1
175
     1
 42
1.0
 92
        8
 66
     7
 43
1.0
 76
     1
 77
     6
 78
     2
 67
     7
 79
     5
170
     0
171
     0
290
     0
174
     0
 93
        1
 44
0.0
173
     0
291
     1
 45
0.0
1001
ACAD
1000
AcDbSavedByObjectVersion
1070
     0
  0
VISUALSTYLE
  5
2A2
102
{ACAD_XDICTIONARY
360
1AFA
102
}
102
{ACAD_REACTORS
330
296
102
}
330
296
100
AcDbVisualStyle
  2
Brighten
 70
    12
 71
     2
 72
     2
 73
     0
 90
        0
 40
-0.6
 41
-30.0
 62
     5
 63
     7
 74
     1
 91
        4
 64
     7
 65
   257
 75
     1
175
     1
 42
1.0
 92
        8
 66
     7
 43
1.0
 76
     1
 77
     6
 78
     2
 67
     7
 79
     5
170
     0
171
     0
290
     0
174
     0
 93
        1
 44
50.0
173
     0
291
     1
 45
0.0
1001
ACAD
1000
AcDbSavedByObjectVersion
1070
     0
  0
VISUALSTYLE
  5
2A6
102
{ACAD_XDICTIONARY
360
1B02
102
}
102
{ACAD_REACTORS
330
296
102
}
330
296
100
AcDbVisualStyle
  2
ColorChange
 70
    16
 71
     2
 72
     2
 73
     3
 90
        0
 40
-0.6
 41
-30.0
 62
     5
 63
     8
 74
     1
 91
        4
 64
     7
 65
   257
 75
     1
175
     1
 42
1.0
 92
        8
 66
     8
 43
1.0
 76
     1
 77
     6
 78
     2
 67
     7
 79
     5
170
     0
171
     0
290
     0
174
     0
 93
        1
 44
0.0
173
     0
291
     1
 45
0.0
1001
ACAD
1000
AcDbSavedByObjectVersion
1070
     0
  0
VISUALSTYLE
  5
29F
102
{ACAD_XDICTIONARY
360
1AF4
102
}
102
{ACAD_REACTORS
330
296
102
}
330
296
100
AcDbVisualStyle
  2
Conceptual
 70
     9
 71
     3
 72
     2
 73
     0
 90
        0
 40
-0.6
 41
-30.0
 62
     5
 63
     7
 74
     2
 91
        2
 64
     7
 65
   257
 75
     1
175
     1
 42
40.0
 92
        8
 66
     7
 43
1.0
 76
     1
 77
     6
 78
     2
 67
     7
 79
     3
170
     0
171
     0
290
     0
174
     0
 93
        1
 44
0.0
173
     0
291
     0
 45
0.0
1001
ACAD
1000
AcDbSavedByObjectVersion
1070
     0
  0
VISUALSTYLE
  5
2A1
102
{ACAD_XDICTIONARY
360
1AF8
102
}
102
{ACAD_REACTORS
330
296
102
}
330
296
100
AcDbVisualStyle
  2
Dim
 70
    11
 71
     2
 72
     2
 73
     0
 90
        0
 40
-0.6
 41
-30.0
 62
     5
 63
     7
 74
     1
 91
        4
 64
     7
 65
   257
 75
     1
175
     1
 42
1.0
 92
        8
 66
     7
 43
1.0
 76
     1
 77
     6
 78
     2
 67
     7
 79
     5
170
     0
171
     0
290
     0
174
     0
 93
        1
 44
-50.0
173
     0
291
     1
 45
0.0
1001
ACAD
1000
AcDbSavedByObjectVersion
1070
     0
  0
VISUALSTYLE
  5
370
102
{ACAD_XDICTIONARY
360
1B08
102
}
102
{ACAD_REACTORS
330
296
102
}
330
296
100
AcDbVisualStyle
  2
EdgeColorOff
 70
    22
 71
     2
 72
     2
 73
     0
 90
        0
 40
-0.6
 41
-30.0
 62
     5
 63
     7
 74
     1
 91
        4
 64
     7
 65
   257
 75
     1
175
     1
 42
1.0
 92
        8
 66
     7
 43
1.0
 76
     1
 77
     6
 78
     2
 67
     7
 79
     5
170
     0
171
     0
290
     0
174
     0
 93
        1
 44
0.0
173
     0
291
     1
 45
0.0
1001
ACAD
1000
AcDbSavedByObjectVersion
1070
     0
  0
VISUALSTYLE
  5
2A5
102
{ACAD_XDICTIONARY
360
1B00
102
}
102
{ACAD_REACTORS
330
296
102
}
330
296
100
AcDbVisualStyle
  2
Facepattern
 70
    15
 71
     2
 72
     2
 73
     0
 90
        0
 40
-0.6
 41
-30.0
 62
     5
 63
     7
 74
     1
 91
        4
 64
     7
 65
   257
 75
     1
175
     1
 42
1.0
 92
        8
 66
     7
 43
1.0
 76
     1
 77
     6
 78
     2
 67
     7
 79
     5
170
     0
171
     0
290
     0
174
     0
 93
        1
 44
0.0
173
     0
291
     1
 45
0.0
1001
ACAD
1000
AcDbSavedByObjectVersion
1070
     0
  0
VISUALSTYLE
  5
297
102
{ACAD_XDICTIONARY
360
1AE4
102
}
102
{ACAD_REACTORS
330
296
102
}
330
296
100
AcDbVisualStyle
  2
Flat
 70
     0
 71
     2
 72
     1
 73
     1
 90
        2
 40
-0.6
 41
30.0
 62
     5
 63
     7
 74
     0
 91
        4
 64
     7
 65
   257
 75
     1
175
     1
 42
1.0
 92
        8
 66
     7
 43
1.0
 76
     1
 77
     6
 78
     2
 67
     7
 79
     5
170
     0
171
     0
290
     0
174
     0
 93
       13
 44
0.0
173
     0
291
     1
 45
0.0
1001
ACAD
1000
AcDbSavedByObjectVersion
1070
     0
  0
VISUALSTYLE
  5
298
102
{ACAD_XDICTIONARY
360
1AE6
102
}
102
{ACAD_REACTORS
330
296
102
}
330
296
100
AcDbVisualStyle
  2
FlatWithEdges
 70
     1
 71
     2
 72
     1
 73
     1
 90
        2
 40
-0.6
 41
30.0
 62
     5
 63
     7
 74
     1
 91
        4
 64
     7
 65
   257
 75
     1
175
     1
 42
1.0
 92
        0
 66
   257
 43
1.0
 76
     1
 77
     6
 78
     2
 67
     7
 79
     5
170
     0
171
     0
290
     0
174
     0
 93
       13
 44
0.0
173
     0
291
     1
 45
0.0
1001
ACAD
1000
AcDbSavedByObjectVersion
1070
     0
  0
VISUALSTYLE
  5
299
102
{ACAD_XDICTIONARY
360
1AE8
102
}
102
{ACAD_REACTORS
330
296
102
}
330
296
100
AcDbVisualStyle
  2
Gouraud
 70
     2
 71
     2
 72
     2
 73
     1
 90
        2
 40
-0.6
 41
30.0
 62
     5
 63
     7
 74
     0
 91
        4
 64
     7
 65
   257
 75
     1
175
     1
 42
1.0
 92
        0
 66
     7
 43
1.0
 76
     1
 77
     6
 78
     2
 67
     7
 79
     5
170
     0
171
     0
290
     0
174
     0
 93
       13
 44
0.0
173
     0
291
     1
 45
0.0
1001
ACAD
1000
AcDbSavedByObjectVersion
1070
     0
  0
VISUALSTYLE
  5
29A
102
{ACAD_XDICTIONARY
360
1AEA
102
}
102
{ACAD_REACTORS
330
296
102
}
330
296
100
AcDbVisualStyle
  2
GouraudWithEdges
 70
     3
 71
     2
 72
     2
 73
     1
 90
        2
 40
-0.6
 41
30.0
 62
     5
 63
     7
 74
     1
 91
        4
 64
     7
 65
   257
 75
     1
175
     1
 42
1.0
 92
        0
 66
   257
 43
1.0
 76
     1
 77
     6
 78
     2
 67
     7
 79
     5
170
     0
171
     0
290
     0
174
     0
 93
       13
 44
0.0
173
     0
291
     1
 45
0.0
1001
ACAD
1000
AcDbSavedByObjectVersion
1070
     0
  0
VISUALSTYLE
  5
36E
102
{ACAD_XDICTIONARY
360
1B04
102
}
102
{ACAD_REACTORS
330
296
102
}
330
296
100
AcDbVisualStyle
  2
JitterOff
 70
    20
 71
     2
 72
     2
 73
     0
 90
        0
 40
-0.6
 41
-30.0
 62
     5
 63
     7
 74
     1
 91
        4
 64
     7
 65
   257
 75
     1
175
     1
 42
1.0
 92
       10
 66
     7
 43
1.0
 76
     1
 77
     6
 78
     2
 67
     7
 79
     5
170
     0
171
     0
290
     0
174
     0
 93
        1
 44
0.0
173
     0
291
     1
 45
0.0
1001
ACAD
1000
AcDbSavedByObjectVersion
1070
     0
  0
VISUALSTYLE
  5
2A4
102
{ACAD_XDICTIONARY
360
1AFE
102
}
102
{ACAD_REACTORS
330
296
102
}
330
296
100
AcDbVisualStyle
  2
Linepattern
 70
    14
 71
     2
 72
     2
 73
     0
 90
        0
 40
-0.6
 41
-30.0
 62
     5
 63
     7
 74
     1
 91
        4
 64
     7
 65
   257
 75
     7
175
     7
 42
1.0
 92
        8
 66
     7
 43
1.0
 76
     1
 77
     6
 78
     2
 67
     7
 79
     5
170
     0
171
     0
290
     0
174
     0
 93
        1
 44
0.0
173
     0
291
     1
 45
0.0
1001
ACAD
1000
AcDbSavedByObjectVersion
1070
     0
  0
VISUALSTYLE
  5
36F
102
{ACAD_XDICTIONARY
360
1B06
102
}
102
{ACAD_REACTORS
330
296
102
}
330
296
100
AcDbVisualStyle
  2
OverhangOff
 70
    21
 71
     2
 72
     2
 73
     0
 90
        0
 40
-0.6
 41
-30.0
 62
     5
 63
     7
 74
     1
 91
        4
 64
     7
 65
   257
 75
     1
175
     1
 42
1.0
 92
        9
 66
     7
 43
1.0
 76
     1
 77
     6
 78
     2
 67
     7
 79
     5
170
     0
171
     0
290
     0
174
     0
 93
        1
 44
0.0
173
     0
291
     1
 45
0.0
1001
ACAD
1000
AcDbSavedByObjectVersion
1070
     0
  0
VISUALSTYLE
  5
2A0
102
{ACAD_XDICTIONARY
360
1AF6
102
}
102
{ACAD_REACTORS
330
296
102
}
330
296
100
AcDbVisualStyle
  2
Realistic
 70
     8
 71
     2
 72
     2
 73
     0
 90
        0
 40
-0.6
 41
-30.0
 62
     5
 63
     7
 74
     1
 91
        0
 64
     7
 65
   257
 75
     1
175
     1
 42
1.0
 92
        8
 66
     8
 43
1.0
 76
     1
 77
     6
 78
     2
 67
     7
 79
     5
170
     0
171
     0
290
     0
174
     0
 93
       13
 44
0.0
173
     0
291
     0
 45
0.0
1001
ACAD
1000
AcDbSavedByObjectVersion
1070
     0
  0
VISUALSTYLE
  5
2A3
102
{ACAD_XDICTIONARY
360
1AFC
102
}
102
{ACAD_REACTORS
330
296
102
}
330
296
100
AcDbVisualStyle
  2
Thicken
 70
    13
 71
     2
 72
     2
 73
     0
 90
        0
 40
-0.6
 41
-30.0
 62
     5
 63
     7
 74
     1
 91
        4
 64
     7
 65
   257
 75
     1
175
     1
 42
1.0
 92
       12
 66
     7
 43
1.0
 76
     1
 77
     6
 78
     2
 67
     7
 79
     5
170
     0
171
     0
290
     0
174
     0
 93
        1
 44
0.0
173
     0
291
     1
 45
0.0
1001
ACAD
1000
AcDbSavedByObjectVersion
1070
     0
  0
DICTIONARYVAR
  5
310
102
{ACAD_REACTORS
330
9E
102
}
330
9E
100
DictionaryVariables
280
     0
  1
1:1
  0
DICTIONARYVAR
  5
30E
102
{ACAD_REACTORS
330
9E
102
}
330
9E
100
DictionaryVariables
280
     0
  1
STANDARD
  0
DICTIONARYVAR
  5
144
102
{ACAD_REACTORS
330
9E
102
}
330
9E
100
DictionaryVariables
280
     0
  1
STANDARD
  0
DICTIONARYVAR
  5
A0
102
{ACAD_REACTORS
330
9E
102
}
330
9E
100
DictionaryVariables
280
     0
  1
2
  0
DICTIONARYVAR
  5
9F
102
{ACAD_REACTORS
330
9E
102
}
330
9E
100
DictionaryVariables
280
     0
  1
0
  0
DICTIONARYVAR
  5
36B
102
{ACAD_REACTORS
330
9E
102
}
330
9E
100
DictionaryVariables
280
     0
  1
1
  0
DICTIONARYVAR
  5
36C
102
{ACAD_REACTORS
330
9E
102
}
330
9E
100
DictionaryVariables
280
     0
  1
15
  0
DICTIONARYVAR
  5
311
102
{ACAD_REACTORS
330
9E
102
}
330
9E
100
DictionaryVariables
280
     0
  1
0
  0
DICTIONARYVAR
  5
30F
102
{ACAD_REACTORS
330
9E
102
}
330
9E
100
DictionaryVariables
280
     0
  1
0
  0
DICTIONARYVAR
  5
E0A
102
{ACAD_REACTORS
330
9E
102
}
330
9E
100
DictionaryVariables
280
     0
  1
127
  0
DICTIONARYVAR
  5
1ACC
102
{ACAD_REACTORS
330
9E
102
}
330
9E
100
DictionaryVariables
280
     0
  1
2
  0
DICTIONARY
  5
69
102
{ACAD_REACTORS
330
63
102
}
330
63
100
AcDbDictionary
281
     1
  0
XRECORD
  5
12C
102
{ACAD_REACTORS
330
63
102
}
330
63
100
AcDbXrecord
280
     1
 90
-1023410169
  0
DICTIONARY
  5
1AD7
330
1E
100
AcDbDictionary
280
     1
281
     1
  3
ACAD_XREC_ROUNDTRIP
360
1AD8
  0
DICTIONARY
  5
1ADB
330
26
100
AcDbDictionary
280
     1
281
     1
  3
ACAD_XREC_ROUNDTRIP
360
1ADC
  0
DICTIONARY
  5
1AD9
330
22
100
AcDbDictionary
280
     1
281
     1
  3
ACAD_XREC_ROUNDTRIP
360
1ADA
  0
DICTIONARY
  5
1AE0
330
294
100
AcDbDictionary
280
     1
281
     1
  3
ACAD_XREC_ROUNDTRIP
360
1AE1
  0
DICTIONARY
  5
1ADE
330
293
100
AcDbDictionary
280
     1
281
     1
  3
ACAD_XREC_ROUNDTRIP
360
1ADF
  0
DICTIONARY
  5
1AE2
330
295
100
AcDbDictionary
280
     1
281
     1
  3
ACAD_XREC_ROUNDTRIP
360
1AE3
  0
DICTIONARY
  5
30B
330
124
100
AcDbDictionary
280
     1
281
     1
  3
ACAD_ROUNDTRIP_2008_TABLESTYLE_CELLSTYLEMAP
360
1ACD
  3
ACAD_XREC_ROUNDTRIP
360
1ADD
  0
DICTIONARY
  5
1AEE
330
29C
100
AcDbDictionary
280
     1
281
     1
  3
ACAD_XREC_ROUNDTRIP
360
1AEF
  0
DICTIONARY
  5
1AF2
330
29E
100
AcDbDictionary
280
     1
281
     1
  3
ACAD_XREC_ROUNDTRIP
360
1AF3
  0
DICTIONARY
  5
1AF0
330
29D
100
AcDbDictionary
280
     1
281
     1
  3
ACAD_XREC_ROUNDTRIP
360
1AF1
  0
DICTIONARY
  5
1AEC
330
29B
100
AcDbDictionary
280
     1
281
     1
  3
ACAD_XREC_ROUNDTRIP
360
1AED
  0
DICTIONARY
  5
1AFA
330
2A2
100
AcDbDictionary
280
     1
281
     1
  3
ACAD_XREC_ROUNDTRIP
360
1AFB
  0
DICTIONARY
  5
1B02
330
2A6
100
AcDbDictionary
280
     1
281
     1
  3
ACAD_XREC_ROUNDTRIP
360
1B03
  0
DICTIONARY
  5
1AF4
330
29F
100
AcDbDictionary
280
     1
281
     1
  3
ACAD_XREC_ROUNDTRIP
360
1AF5
  0
DICTIONARY
  5
1AF8
330
2A1
100
AcDbDictionary
280
     1
281
     1
  3
ACAD_XREC_ROUNDTRIP
360
1AF9
  0
DICTIONARY
  5
1B08
330
370
100
AcDbDictionary
280
     1
281
     1
  3
ACAD_XREC_ROUNDTRIP
360
1B09
  0
DICTIONARY
  5
1B00
330
2A5
100
AcDbDictionary
280
     1
281
     1
  3
ACAD_XREC_ROUNDTRIP
360
1B01
  0
DICTIONARY
  5
1AE4
330
297
100
AcDbDictionary
280
     1
281
     1
  3
ACAD_XREC_ROUNDTRIP
360
1AE5
  0
DICTIONARY
  5
1AE6
330
298
100
AcDbDictionary
280
     1
281
     1
  3
ACAD_XREC_ROUNDTRIP
360
1AE7
  0
DICTIONARY
  5
1AE8
330
299
100
AcDbDictionary
280
     1
281
     1
  3
ACAD_XREC_ROUNDTRIP
360
1AE9
  0
DICTIONARY
  5
1AEA
330
29A
100
AcDbDictionary
280
     1
281
     1
  3
ACAD_XREC_ROUNDTRIP
360
1AEB
  0
DICTIONARY
  5
1B04
330
36E
100
AcDbDictionary
280
     1
281
     1
  3
ACAD_XREC_ROUNDTRIP
360
1B05
  0
DICTIONARY
  5
1AFE
330
2A4
100
AcDbDictionary
280
     1
281
     1
  3
ACAD_XREC_ROUNDTRIP
360
1AFF
  0
DICTIONARY
  5
1B06
330
36F
100
AcDbDictionary
280
     1
281
     1
  3
ACAD_XREC_ROUNDTRIP
360
1B07
  0
DICTIONARY
  5
1AF6
330
2A0
100
AcDbDictionary
280
     1
281
     1
  3
ACAD_XREC_ROUNDTRIP
360
1AF7
  0
DICTIONARY
  5
1AFC
330
2A3
100
AcDbDictionary
280
     1
281
     1
  3
ACAD_XREC_ROUNDTRIP
360
1AFD
  0
XRECORD
  5
1AD8
102
{ACAD_REACTORS
330
1AD7
102
}
330
1AD7
100
AcDbXrecord
280
     1
102
SHADEPLOT
 70
     0
102
SHADEPLOTRESLEVEL
 70
     2
102
SHADEPLOTCUSTOMDPI
 70
   300
  0
XRECORD
  5
1ADC
102
{ACAD_REACTORS
330
1ADB
102
}
330
1ADB
100
AcDbXrecord
280
     1
102
SHADEPLOT
 70
     0
102
SHADEPLOTRESLEVEL
 70
     2
102
SHADEPLOTCUSTOMDPI
 70
   300
  0
XRECORD
  5
1ADA
102
{ACAD_REACTORS
330
1AD9
102
}
330
1AD9
100
AcDbXrecord
280
     1
102
SHADEPLOT
 70
     0
102
SHADEPLOTRESLEVEL
 70
     2
102
SHADEPLOTCUSTOMDPI
 70
   300
  0
XRECORD
  5
1AE1
102
{ACAD_REACTORS
330
1AE0
102
}
330
1AE0
100
AcDbXrecord
280
     1
102
MATERIAL
148
0.0
149
0.0
149
0.0
 93
        0
 94
       63
282
     0
 72
     1
 77
     1
171
     1
175
     1
179
     1
273
     0
  0
XRECORD
  5
1ADF
102
{ACAD_REACTORS
330
1ADE
102
}
330
1ADE
100
AcDbXrecord
280
     1
102
MATERIAL
148
0.0
149
0.0
149
0.0
 93
        0
 94
       63
282
     0
 72
     1
 77
     1
171
     1
175
     1
179
     1
273
     0
  0
XRECORD
  5
1AE3
102
{ACAD_REACTORS
330
1AE2
102
}
330
1AE2
100
AcDbXrecord
280
     1
102
MATERIAL
148
0.0
149
0.0
149
0.0
 93
        0
 94
       63
282
     0
 72
     1
 77
     1
171
     1
175
     1
179
     1
273
     0
  0
CELLSTYLEMAP
  5
1ACD
102
{ACAD_REACTORS
330
30B
102
}
330
30B
100
AcDbCellStyleMap
 90
        3
300
CELLSTYLE
  1
TABLEFORMAT_BEGIN
 90
        5
170
     1
 91
        0
 92
    32768
 62
   257
 93
        1
300
CONTENTFORMAT
  1
CONTENTFORMAT_BEGIN
 90
        0
 91
        0
 92
      512
 93
        0
300

 40
0.0
140
1.0
 94
        5
 62
     0
340
11
144
0.25
309
CONTENTFORMAT_END
171
     0
 94
        6
 95
        1
302
GRIDFORMAT
  1
GRIDFORMAT_BEGIN
 90
        0
 91
        1
 62
     0
 92
       -2
340
0
 93
        0
 40
0.045
309
GRIDFORMAT_END
 95
        2
302
GRIDFORMAT
  1
GRIDFORMAT_BEGIN
 90
        0
 91
        1
 62
     0
 92
       -2
340
0
 93
        0
 40
0.045
309
GRIDFORMAT_END
 95
        4
302
GRIDFORMAT
  1
GRIDFORMAT_BEGIN
 90
        0
 91
        1
 62
     0
 92
       -2
340
0
 93
        0
 40
0.045
309
GRIDFORMAT_END
 95
        8
302
GRIDFORMAT
  1
GRIDFORMAT_BEGIN
 90
        0
 91
        1
 62
     0
 92
       -2
340
0
 93
        0
 40
0.045
309
GRIDFORMAT_END
 95
       16
302
GRIDFORMAT
  1
GRIDFORMAT_BEGIN
 90
        0
 91
        1
 62
     0
 92
       -2
340
0
 93
        0
 40
0.045
309
GRIDFORMAT_END
 95
       32
302
GRIDFORMAT
  1
GRIDFORMAT_BEGIN
 90
        0
 91
        1
 62
     0
 92
       -2
340
0
 93
        0
 40
0.045
309
GRIDFORMAT_END
309
TABLEFORMAT_END
  1
CELLSTYLE_BEGIN
 90
        1
 91
        1
300
_TITLE
309
CELLSTYLE_END
300
CELLSTYLE
  1
TABLEFORMAT_BEGIN
 90
        5
170
     1
 91
        0
 92
        0
 62
   257
 93
        1
300
CONTENTFORMAT
  1
CONTENTFORMAT_BEGIN
 90
        0
 91
        0
 92
      512
 93
        0
300

 40
0.0
140
1.0
 94
        5
 62
     0
340
11
144
0.18
309
CONTENTFORMAT_END
171
     0
 94
        6
 95
        1
302
GRIDFORMAT
  1
GRIDFORMAT_BEGIN
 90
        0
 91
        1
 62
     0
 92
       -2
340
0
 93
        0
 40
0.045
309
GRIDFORMAT_END
 95
        2
302
GRIDFORMAT
  1
GRIDFORMAT_BEGIN
 90
        0
 91
        1
 62
     0
 92
       -2
340
0
 93
        0
 40
0.045
309
GRIDFORMAT_END
 95
        4
302
GRIDFORMAT
  1
GRIDFORMAT_BEGIN
 90
        0
 91
        1
 62
     0
 92
       -2
340
0
 93
        0
 40
0.045
309
GRIDFORMAT_END
 95
        8
302
GRIDFORMAT
  1
GRIDFORMAT_BEGIN
 90
        0
 91
        1
 62
     0
 92
       -2
340
0
 93
        0
 40
0.045
309
GRIDFORMAT_END
 95
       16
302
GRIDFORMAT
  1
GRIDFORMAT_BEGIN
 90
        0
 91
        1
 62
     0
 92
       -2
340
0
 93
        0
 40
0.045
309
GRIDFORMAT_END
 95
       32
302
GRIDFORMAT
  1
GRIDFORMAT_BEGIN
 90
        0
 91
        1
 62
     0
 92
       -2
340
0
 93
        0
 40
0.045
309
GRIDFORMAT_END
309
TABLEFORMAT_END
  1
CELLSTYLE_BEGIN
 90
        2
 91
        1
300
_HEADER
309
CELLSTYLE_END
300
CELLSTYLE
  1
TABLEFORMAT_BEGIN
 90
        5
170
     1
 91
        0
 92
        0
 62
   257
 93
        1
300
CONTENTFORMAT
  1
CONTENTFORMAT_BEGIN
 90
        0
 91
        0
 92
      512
 93
        0
300

 40
0.0
140
1.0
 94
        2
 62
     0
340
11
144
0.18
309
CONTENTFORMAT_END
171
     0
 94
        6
 95
        1
302
GRIDFORMAT
  1
GRIDFORMAT_BEGIN
 90
        0
 91
        1
 62
     0
 92
       -2
340
0
 93
        0
 40
0.045
309
GRIDFORMAT_END
 95
        2
302
GRIDFORMAT
  1
GRIDFORMAT_BEGIN
 90
        0
 91
        1
 62
     0
 92
       -2
340
0
 93
        0
 40
0.045
309
GRIDFORMAT_END
 95
        4
302
GRIDFORMAT
  1
GRIDFORMAT_BEGIN
 90
        0
 91
        1
 62
     0
 92
       -2
340
0
 93
        0
 40
0.045
309
GRIDFORMAT_END
 95
        8
302
GRIDFORMAT
  1
GRIDFORMAT_BEGIN
 90
        0
 91
        1
 62
     0
 92
       -2
340
0
 93
        0
 40
0.045
309
GRIDFORMAT_END
 95
       16
302
GRIDFORMAT
  1
GRIDFORMAT_BEGIN
 90
        0
 91
        1
 62
     0
 92
       -2
340
0
 93
        0
 40
0.045
309
GRIDFORMAT_END
 95
       32
302
GRIDFORMAT
  1
GRIDFORMAT_BEGIN
 90
        0
 91
        1
 62
     0
 92
       -2
340
0
 93
        0
 40
0.045
309
GRIDFORMAT_END
309
TABLEFORMAT_END
  1
CELLSTYLE_BEGIN
 90
        3
 91
        2
300
_DATA
309
CELLSTYLE_END
  0
XRECORD
  5
1ADD
102
{ACAD_REACTORS
330
30B
102
}
330
30B
100
AcDbXrecord
280
     1
102
ACAD_ROUNDTRIP_PRE2007_TABLESTYLE
 90
      512
 91
        0
  1

 92
      512
 93
        0
  2

 94
      512
 95
        0
  3

  0
XRECORD
  5
1AEF
102
{ACAD_REACTORS
330
1AEE
102
}
330
1AEE
100
AcDbXrecord
280
     1
102
RTVSPropertyOp0
 70
     1
102
RTVSPropertyOp1
 70
     1
102
RTVSPropertyOp2
 70
     1
102
RTVSPropertyOp3
 70
     1
102
RTVSPropertyOp4
 70
     1
102
RTVSPropertyOp5
 70
     1
102
RTVSPropertyOp6
 70
     1
102
RTVSPropertyOp7
 70
     1
102
RTVSPropertyOp8
 70
     1
102
RTVSPropertyOp9
 70
     1
102
RTVSPropertyOp10
 70
     1
102
RTVSPropertyOp11
 70
     1
102
RTVSPropertyOp12
 70
     1
102
RTVSPropertyOp13
 70
     1
102
RTVSPropertyOp14
 70
     1
102
RTVSPropertyOp15
 70
     1
102
RTVSPropertyOp16
 70
     1
102
RTVSPropertyOp17
 70
     1
102
RTVSPropertyOp18
 70
     1
102
RTVSPropertyOp19
 70
     1
102
RTVSPropertyOp20
 70
     1
102
RTVSPropertyOp21
 70
     1
102
RTVSPropertyOp22
 70
     1
102
RTVSPropertyOp23
 70
     1
102
RTVSPropertyOp24
 70
     1
102
RTVSPropertyOp25
 70
     1
102
RTVSPropertyOp26
 70
     1
102
RTVSPropertyOp27
 70
     1
  0
XRECORD
  5
1AF3
102
{ACAD_REACTORS
330
1AF2
102
}
330
1AF2
100
AcDbXrecord
280
     1
102
RTVSPropertyOp0
 70
     1
102
RTVSPropertyOp1
 70
     1
102
RTVSPropertyOp2
 70
     1
102
RTVSPropertyOp3
 70
     1
102
RTVSPropertyOp4
 70
     1
102
RTVSPropertyOp5
 70
     1
102
RTVSPropertyOp6
 70
     1
102
RTVSPropertyOp7
 70
     1
102
RTVSPropertyOp8
 70
     1
102
RTVSPropertyOp9
 70
     1
102
RTVSPropertyOp10
 70
     1
102
RTVSPropertyOp11
 70
     1
102
RTVSPropertyOp12
 70
     1
102
RTVSPropertyOp13
 70
     1
102
RTVSPropertyOp14
 70
     1
102
RTVSPropertyOp15
 70
     1
102
RTVSPropertyOp16
 70
     1
102
RTVSPropertyOp17
 70
     1
102
RTVSPropertyOp18
 70
     1
102
RTVSPropertyOp19
 70
     1
102
RTVSPropertyOp20
 70
     1
102
RTVSPropertyOp21
 70
     1
102
RTVSPropertyOp22
 70
     1
102
RTVSPropertyOp23
 70
     1
102
RTVSPropertyOp24
 70
     1
102
RTVSPropertyOp25
 70
     1
102
RTVSPropertyOp26
 70
     1
102
RTVSPropertyOp27
 70
     1
  0
XRECORD
  5
1AF1
102
{ACAD_REACTORS
330
1AF0
102
}
330
1AF0
100
AcDbXrecord
280
     1
102
RTVSPropertyOp0
 70
     1
102
RTVSPropertyOp1
 70
     1
102
RTVSPropertyOp2
 70
     1
102
RTVSPropertyOp3
 70
     1
102
RTVSPropertyOp4
 70
     1
102
RTVSPropertyOp5
 70
     1
102
RTVSPropertyOp6
 70
     1
102
RTVSPropertyOp7
 70
     1
102
RTVSPropertyOp8
 70
     1
102
RTVSPropertyOp9
 70
     1
102
RTVSPropertyOp10
 70
     1
102
RTVSPropertyOp11
 70
     1
102
RTVSPropertyOp12
 70
     1
102
RTVSPropertyOp13
 70
     1
102
RTVSPropertyOp14
 70
     1
102
RTVSPropertyOp15
 70
     1
102
RTVSPropertyOp16
 70
     1
102
RTVSPropertyOp17
 70
     1
102
RTVSPropertyOp18
 70
     1
102
RTVSPropertyOp19
 70
     1
102
RTVSPropertyOp20
 70
     1
102
RTVSPropertyOp21
 70
     1
102
RTVSPropertyOp22
 70
     1
102
RTVSPropertyOp23
 70
     1
102
RTVSPropertyOp24
 70
     1
102
RTVSPropertyOp25
 70
     1
102
RTVSPropertyOp26
 70
     1
102
RTVSPropertyOp27
 70
     1
  0
XRECORD
  5
1AED
102
{ACAD_REACTORS
330
1AEC
102
}
330
1AEC
100
AcDbXrecord
280
     1
102
RTVSPropertyOp0
 70
     1
102
RTVSPropertyOp1
 70
     1
102
RTVSPropertyOp2
 70
     1
102
RTVSPropertyOp3
 70
     1
102
RTVSPropertyOp4
 70
     1
102
RTVSPropertyOp5
 70
     1
102
RTVSPropertyOp6
 70
     1
102
RTVSPropertyOp7
 70
     1
102
RTVSPropertyOp8
 70
     1
102
RTVSPropertyOp9
 70
     1
102
RTVSPropertyOp10
 70
     1
102
RTVSPropertyOp11
 70
     1
102
RTVSPropertyOp12
 70
     1
102
RTVSPropertyOp13
 70
     1
102
RTVSPropertyOp14
 70
     1
102
RTVSPropertyOp15
 70
     1
102
RTVSPropertyOp16
 70
     1
102
RTVSPropertyOp17
 70
     1
102
RTVSPropertyOp18
 70
     1
102
RTVSPropertyOp19
 70
     1
102
RTVSPropertyOp20
 70
     1
102
RTVSPropertyOp21
 70
     1
102
RTVSPropertyOp22
 70
     1
102
RTVSPropertyOp23
 70
     1
102
RTVSPropertyOp24
 70
     1
102
RTVSPropertyOp25
 70
     1
102
RTVSPropertyOp26
 70
     1
102
RTVSPropertyOp27
 70
     1
  0
XRECORD
  5
1AFB
102
{ACAD_REACTORS
330
1AFA
102
}
330
1AFA
100
AcDbXrecord
280
     1
102
RTVSPropertyOp0
 70
     1
102
RTVSPropertyOp1
 70
     1
102
RTVSPropertyOp2
 70
     1
102
RTVSPropertyOp3
 70
     1
102
RTVSPropertyOp4
 70
     1
102
RTVSPropertyOp5
 70
     1
102
RTVSPropertyOp6
 70
     1
102
RTVSPropertyOp7
 70
     1
102
RTVSPropertyOp8
 70
     1
102
RTVSPropertyOp9
 70
     1
102
RTVSPropertyOp10
 70
     1
102
RTVSPropertyOp11
 70
     1
102
RTVSPropertyOp12
 70
     1
102
RTVSPropertyOp13
 70
     1
102
RTVSPropertyOp14
 70
     1
102
RTVSPropertyOp15
 70
     1
102
RTVSPropertyOp16
 70
     1
102
RTVSPropertyOp17
 70
     1
102
RTVSPropertyOp18
 70
     1
102
RTVSPropertyOp19
 70
     1
102
RTVSPropertyOp20
 70
     1
102
RTVSPropertyOp21
 70
     1
102
RTVSPropertyOp22
 70
     1
102
RTVSPropertyOp23
 70
     1
102
RTVSPropertyOp24
 70
     1
102
RTVSPropertyOp25
 70
     1
102
RTVSPropertyOp26
 70
     1
102
RTVSPropertyOp27
 70
     1
  0
XRECORD
  5
1B03
102
{ACAD_REACTORS
330
1B02
102
}
330
1B02
100
AcDbXrecord
280
     1
102
RTVSPropertyOp0
 70
     1
102
RTVSPropertyOp1
 70
     1
102
RTVSPropertyOp2
 70
     1
102
RTVSPropertyOp3
 70
     1
102
RTVSPropertyOp4
 70
     1
102
RTVSPropertyOp5
 70
     1
102
RTVSPropertyOp6
 70
     1
102
RTVSPropertyOp7
 70
     1
102
RTVSPropertyOp8
 70
     1
102
RTVSPropertyOp9
 70
     1
102
RTVSPropertyOp10
 70
     1
102
RTVSPropertyOp11
 70
     1
102
RTVSPropertyOp12
 70
     1
102
RTVSPropertyOp13
 70
     1
102
RTVSPropertyOp14
 70
     1
102
RTVSPropertyOp15
 70
     1
102
RTVSPropertyOp16
 70
     1
102
RTVSPropertyOp17
 70
     1
102
RTVSPropertyOp18
 70
     1
102
RTVSPropertyOp19
 70
     1
102
RTVSPropertyOp20
 70
     1
102
RTVSPropertyOp21
 70
     1
102
RTVSPropertyOp22
 70
     1
102
RTVSPropertyOp23
 70
     1
102
RTVSPropertyOp24
 70
     1
102
RTVSPropertyOp25
 70
     1
102
RTVSPropertyOp26
 70
     1
102
RTVSPropertyOp27
 70
     1
  0
XRECORD
  5
1AF5
102
{ACAD_REACTORS
330
1AF4
102
}
330
1AF4
100
AcDbXrecord
280
     1
102
RTVSPropertyOp0
 70
     1
102
RTVSPropertyOp1
 70
     1
102
RTVSPropertyOp2
 70
     1
102
RTVSPropertyOp3
 70
     1
102
RTVSPropertyOp4
 70
     1
102
RTVSPropertyOp5
 70
     1
102
RTVSPropertyOp6
 70
     1
102
RTVSPropertyOp7
 70
     1
102
RTVSPropertyOp8
 70
     1
102
RTVSPropertyOp9
 70
     1
102
RTVSPropertyOp10
 70
     1
102
RTVSPropertyOp11
 70
     1
102
RTVSPropertyOp12
 70
     1
102
RTVSPropertyOp13
 70
     1
102
RTVSPropertyOp14
 70
     1
102
RTVSPropertyOp15
 70
     1
102
RTVSPropertyOp16
 70
     1
102
RTVSPropertyOp17
 70
     1
102
RTVSPropertyOp18
 70
     1
102
RTVSPropertyOp19
 70
     1
102
RTVSPropertyOp20
 70
     1
102
RTVSPropertyOp21
 70
     1
102
RTVSPropertyOp22
 70
     1
102
RTVSPropertyOp23
 70
     1
102
RTVSPropertyOp24
 70
     1
102
RTVSPropertyOp25
 70
     1
102
RTVSPropertyOp26
 70
     1
102
RTVSPropertyOp27
 70
     1
  0
XRECORD
  5
1AF9
102
{ACAD_REACTORS
330
1AF8
102
}
330
1AF8
100
AcDbXrecord
280
     1
102
RTVSPropertyOp0
 70
     1
102
RTVSPropertyOp1
 70
     1
102
RTVSPropertyOp2
 70
     1
102
RTVSPropertyOp3
 70
     1
102
RTVSPropertyOp4
 70
     1
102
RTVSPropertyOp5
 70
     1
102
RTVSPropertyOp6
 70
     1
102
RTVSPropertyOp7
 70
     1
102
RTVSPropertyOp8
 70
     1
102
RTVSPropertyOp9
 70
     1
102
RTVSPropertyOp10
 70
     1
102
RTVSPropertyOp11
 70
     1
102
RTVSPropertyOp12
 70
     1
102
RTVSPropertyOp13
 70
     1
102
RTVSPropertyOp14
 70
     1
102
RTVSPropertyOp15
 70
     1
102
RTVSPropertyOp16
 70
     1
102
RTVSPropertyOp17
 70
     1
102
RTVSPropertyOp18
 70
     1
102
RTVSPropertyOp19
 70
     1
102
RTVSPropertyOp20
 70
     1
102
RTVSPropertyOp21
 70
     1
102
RTVSPropertyOp22
 70
     1
102
RTVSPropertyOp23
 70
     1
102
RTVSPropertyOp24
 70
     1
102
RTVSPropertyOp25
 70
     1
102
RTVSPropertyOp26
 70
     1
102
RTVSPropertyOp27
 70
     1
  0
XRECORD
  5
1B09
102
{ACAD_REACTORS
330
1B08
102
}
330
1B08
100
AcDbXrecord
280
     1
102
RTVSPropertyOp0
 70
     0
102
RTVSPropertyOp1
 70
     0
102
RTVSPropertyOp2
 70
     0
102
RTVSPropertyOp3
 70
     0
102
RTVSPropertyOp4
 70
     0
102
RTVSPropertyOp5
 70
     0
102
RTVSPropertyOp6
 70
     0
102
RTVSPropertyOp7
 70
     0
102
RTVSPropertyOp8
 70
     0
102
RTVSPropertyOp9
 70
     0
102
RTVSPropertyOp10
 70
     0
102
RTVSPropertyOp11
 70
     0
102
RTVSPropertyOp12
 70
     0
102
RTVSPropertyOp13
 70
     0
102
RTVSPropertyOp14
 70
     2
102
RTVSPropertyOp15
 70
     0
102
RTVSPropertyOp16
 70
     0
102
RTVSPropertyOp17
 70
     0
102
RTVSPropertyOp18
 70
     0
102
RTVSPropertyOp19
 70
     0
102
RTVSPropertyOp20
 70
     0
102
RTVSPropertyOp21
 70
     0
102
RTVSPropertyOp22
 70
     0
102
RTVSPropertyOp23
 70
     0
102
RTVSPropertyOp24
 70
     0
102
RTVSPropertyOp25
 70
     0
102
RTVSPropertyOp26
 70
     0
102
RTVSPropertyOp27
 70
     0
  0
XRECORD
  5
1B01
102
{ACAD_REACTORS
330
1B00
102
}
330
1B00
100
AcDbXrecord
280
     1
102
RTVSPropertyOp0
 70
     1
102
RTVSPropertyOp1
 70
     1
102
RTVSPropertyOp2
 70
     1
102
RTVSPropertyOp3
 70
     1
102
RTVSPropertyOp4
 70
     1
102
RTVSPropertyOp5
 70
     1
102
RTVSPropertyOp6
 70
     1
102
RTVSPropertyOp7
 70
     1
102
RTVSPropertyOp8
 70
     1
102
RTVSPropertyOp9
 70
     1
102
RTVSPropertyOp10
 70
     1
102
RTVSPropertyOp11
 70
     1
102
RTVSPropertyOp12
 70
     1
102
RTVSPropertyOp13
 70
     1
102
RTVSPropertyOp14
 70
     1
102
RTVSPropertyOp15
 70
     1
102
RTVSPropertyOp16
 70
     1
102
RTVSPropertyOp17
 70
     1
102
RTVSPropertyOp18
 70
     1
102
RTVSPropertyOp19
 70
     1
102
RTVSPropertyOp20
 70
     1
102
RTVSPropertyOp21
 70
     1
102
RTVSPropertyOp22
 70
     1
102
RTVSPropertyOp23
 70
     1
102
RTVSPropertyOp24
 70
     1
102
RTVSPropertyOp25
 70
     1
102
RTVSPropertyOp26
 70
     1
102
RTVSPropertyOp27
 70
     1
  0
XRECORD
  5
1AE5
102
{ACAD_REACTORS
330
1AE4
102
}
330
1AE4
100
AcDbXrecord
280
     1
102
RTVSPropertyOp0
 70
     1
102
RTVSPropertyOp1
 70
     1
102
RTVSPropertyOp2
 70
     1
102
RTVSPropertyOp3
 70
     1
102
RTVSPropertyOp4
 70
     1
102
RTVSPropertyOp5
 70
     1
102
RTVSPropertyOp6
 70
     1
102
RTVSPropertyOp7
 70
     1
102
RTVSPropertyOp8
 70
     1
102
RTVSPropertyOp9
 70
     1
102
RTVSPropertyOp10
 70
     1
102
RTVSPropertyOp11
 70
     1
102
RTVSPropertyOp12
 70
     1
102
RTVSPropertyOp13
 70
     1
102
RTVSPropertyOp14
 70
     1
102
RTVSPropertyOp15
 70
     1
102
RTVSPropertyOp16
 70
     1
102
RTVSPropertyOp17
 70
     1
102
RTVSPropertyOp18
 70
     1
102
RTVSPropertyOp19
 70
     1
102
RTVSPropertyOp20
 70
     1
102
RTVSPropertyOp21
 70
     1
102
RTVSPropertyOp22
 70
     1
102
RTVSPropertyOp23
 70
     1
102
RTVSPropertyOp24
 70
     1
102
RTVSPropertyOp25
 70
     1
102
RTVSPropertyOp26
 70
     1
102
RTVSPropertyOp27
 70
     1
  0
XRECORD
  5
1AE7
102
{ACAD_REACTORS
330
1AE6
102
}
330
1AE6
100
AcDbXrecord
280
     1
102
RTVSPropertyOp0
 70
     1
102
RTVSPropertyOp1
 70
     1
102
RTVSPropertyOp2
 70
     1
102
RTVSPropertyOp3
 70
     1
102
RTVSPropertyOp4
 70
     1
102
RTVSPropertyOp5
 70
     1
102
RTVSPropertyOp6
 70
     1
102
RTVSPropertyOp7
 70
     1
102
RTVSPropertyOp8
 70
     1
102
RTVSPropertyOp9
 70
     1
102
RTVSPropertyOp10
 70
     1
102
RTVSPropertyOp11
 70
     1
102
RTVSPropertyOp12
 70
     1
102
RTVSPropertyOp13
 70
     1
102
RTVSPropertyOp14
 70
     1
102
RTVSPropertyOp15
 70
     1
102
RTVSPropertyOp16
 70
     1
102
RTVSPropertyOp17
 70
     1
102
RTVSPropertyOp18
 70
     1
102
RTVSPropertyOp19
 70
     1
102
RTVSPropertyOp20
 70
     1
102
RTVSPropertyOp21
 70
     1
102
RTVSPropertyOp22
 70
     1
102
RTVSPropertyOp23
 70
     1
102
RTVSPropertyOp24
 70
     1
102
RTVSPropertyOp25
 70
     1
102
RTVSPropertyOp26
 70
     1
102
RTVSPropertyOp27
 70
     1
  0
XRECORD
  5
1AE9
102
{ACAD_REACTORS
330
1AE8
102
}
330
1AE8
100
AcDbXrecord
280
     1
102
RTVSPropertyOp0
 70
     1
102
RTVSPropertyOp1
 70
     1
102
RTVSPropertyOp2
 70
     1
102
RTVSPropertyOp3
 70
     1
102
RTVSPropertyOp4
 70
     1
102
RTVSPropertyOp5
 70
     1
102
RTVSPropertyOp6
 70
     1
102
RTVSPropertyOp7
 70
     1
102
RTVSPropertyOp8
 70
     1
102
RTVSPropertyOp9
 70
     1
102
RTVSPropertyOp10
 70
     1
102
RTVSPropertyOp11
 70
     1
102
RTVSPropertyOp12
 70
     1
102
RTVSPropertyOp13
 70
     1
102
RTVSPropertyOp14
 70
     1
102
RTVSPropertyOp15
 70
     1
102
RTVSPropertyOp16
 70
     1
102
RTVSPropertyOp17
 70
     1
102
RTVSPropertyOp18
 70
     1
102
RTVSPropertyOp19
 70
     1
102
RTVSPropertyOp20
 70
     1
102
RTVSPropertyOp21
 70
     1
102
RTVSPropertyOp22
 70
     1
102
RTVSPropertyOp23
 70
     1
102
RTVSPropertyOp24
 70
     1
102
RTVSPropertyOp25
 70
     1
102
RTVSPropertyOp26
 70
     1
102
RTVSPropertyOp27
 70
     1
  0
XRECORD
  5
1AEB
102
{ACAD_REACTORS
330
1AEA
102
}
330
1AEA
100
AcDbXrecord
280
     1
102
RTVSPropertyOp0
 70
     1
102
RTVSPropertyOp1
 70
     1
102
RTVSPropertyOp2
 70
     1
102
RTVSPropertyOp3
 70
     1
102
RTVSPropertyOp4
 70
     1
102
RTVSPropertyOp5
 70
     1
102
RTVSPropertyOp6
 70
     1
102
RTVSPropertyOp7
 70
     1
102
RTVSPropertyOp8
 70
     1
102
RTVSPropertyOp9
 70
     1
102
RTVSPropertyOp10
 70
     1
102
RTVSPropertyOp11
 70
     1
102
RTVSPropertyOp12
 70
     1
102
RTVSPropertyOp13
 70
     1
102
RTVSPropertyOp14
 70
     1
102
RTVSPropertyOp15
 70
     1
102
RTVSPropertyOp16
 70
     1
102
RTVSPropertyOp17
 70
     1
102
RTVSPropertyOp18
 70
     1
102
RTVSPropertyOp19
 70
     1
102
RTVSPropertyOp20
 70
     1
102
RTVSPropertyOp21
 70
     1
102
RTVSPropertyOp22
 70
     1
102
RTVSPropertyOp23
 70
     1
102
RTVSPropertyOp24
 70
     1
102
RTVSPropertyOp25
 70
     1
102
RTVSPropertyOp26
 70
     1
102
RTVSPropertyOp27
 70
     1
  0
XRECORD
  5
1B05
102
{ACAD_REACTORS
330
1B04
102
}
330
1B04
100
AcDbXrecord
280
     1
102
RTVSPropertyOp0
 70
     0
102
RTVSPropertyOp1
 70
     0
102
RTVSPropertyOp2
 70
     0
102
RTVSPropertyOp3
 70
     0
102
RTVSPropertyOp4
 70
     0
102
RTVSPropertyOp5
 70
     0
102
RTVSPropertyOp6
 70
     0
102
RTVSPropertyOp7
 70
     0
102
RTVSPropertyOp8
 70
     0
102
RTVSPropertyOp9
 70
     0
102
RTVSPropertyOp10
 70
     0
102
RTVSPropertyOp11
 70
     0
102
RTVSPropertyOp12
 70
     0
102
RTVSPropertyOp13
 70
     0
102
RTVSPropertyOp14
 70
     2
102
RTVSPropertyOp15
 70
     0
102
RTVSPropertyOp16
 70
     0
102
RTVSPropertyOp17
 70
     0
102
RTVSPropertyOp18
 70
     0
102
RTVSPropertyOp19
 70
     0
102
RTVSPropertyOp20
 70
     0
102
RTVSPropertyOp21
 70
     0
102
RTVSPropertyOp22
 70
     0
102
RTVSPropertyOp23
 70
     0
102
RTVSPropertyOp24
 70
     0
102
RTVSPropertyOp25
 70
     0
102
RTVSPropertyOp26
 70
     0
102
RTVSPropertyOp27
 70
     0
  0
XRECORD
  5
1AFF
102
{ACAD_REACTORS
330
1AFE
102
}
330
1AFE
100
AcDbXrecord
280
     1
102
RTVSPropertyOp0
 70
     1
102
RTVSPropertyOp1
 70
     1
102
RTVSPropertyOp2
 70
     1
102
RTVSPropertyOp3
 70
     1
102
RTVSPropertyOp4
 70
     1
102
RTVSPropertyOp5
 70
     1
102
RTVSPropertyOp6
 70
     1
102
RTVSPropertyOp7
 70
     1
102
RTVSPropertyOp8
 70
     1
102
RTVSPropertyOp9
 70
     1
102
RTVSPropertyOp10
 70
     1
102
RTVSPropertyOp11
 70
     1
102
RTVSPropertyOp12
 70
     1
102
RTVSPropertyOp13
 70
     1
102
RTVSPropertyOp14
 70
     1
102
RTVSPropertyOp15
 70
     1
102
RTVSPropertyOp16
 70
     1
102
RTVSPropertyOp17
 70
     1
102
RTVSPropertyOp18
 70
     1
102
RTVSPropertyOp19
 70
     1
102
RTVSPropertyOp20
 70
     1
102
RTVSPropertyOp21
 70
     1
102
RTVSPropertyOp22
 70
     1
102
RTVSPropertyOp23
 70
     1
102
RTVSPropertyOp24
 70
     1
102
RTVSPropertyOp25
 70
     1
102
RTVSPropertyOp26
 70
     1
102
RTVSPropertyOp27
 70
     1
  0
XRECORD
  5
1B07
102
{ACAD_REACTORS
330
1B06
102
}
330
1B06
100
AcDbXrecord
280
     1
102
RTVSPropertyOp0
 70
     0
102
RTVSPropertyOp1
 70
     0
102
RTVSPropertyOp2
 70
     0
102
RTVSPropertyOp3
 70
     0
102
RTVSPropertyOp4
 70
     0
102
RTVSPropertyOp5
 70
     0
102
RTVSPropertyOp6
 70
     0
102
RTVSPropertyOp7
 70
     0
102
RTVSPropertyOp8
 70
     0
102
RTVSPropertyOp9
 70
     0
102
RTVSPropertyOp10
 70
     0
102
RTVSPropertyOp11
 70
     0
102
RTVSPropertyOp12
 70
     0
102
RTVSPropertyOp13
 70
     0
102
RTVSPropertyOp14
 70
     2
102
RTVSPropertyOp15
 70
     0
102
RTVSPropertyOp16
 70
     0
102
RTVSPropertyOp17
 70
     0
102
RTVSPropertyOp18
 70
     0
102
RTVSPropertyOp19
 70
     0
102
RTVSPropertyOp20
 70
     0
102
RTVSPropertyOp21
 70
     0
102
RTVSPropertyOp22
 70
     0
102
RTVSPropertyOp23
 70
     0
102
RTVSPropertyOp24
 70
     0
102
RTVSPropertyOp25
 70
     0
102
RTVSPropertyOp26
 70
     0
102
RTVSPropertyOp27
 70
     0
  0
XRECORD
  5
1AF7
102
{ACAD_REACTORS
330
1AF6
102
}
330
1AF6
100
AcDbXrecord
280
     1
102
RTVSPropertyOp0
 70
     1
102
RTVSPropertyOp1
 70
     1
102
RTVSPropertyOp2
 70
     1
102
RTVSPropertyOp3
 70
     1
102
RTVSPropertyOp4
 70
     1
102
RTVSPropertyOp5
 70
     1
102
RTVSPropertyOp6
 70
     1
102
RTVSPropertyOp7
 70
     1
102
RTVSPropertyOp8
 70
     1
102
RTVSPropertyOp9
 70
     1
102
RTVSPropertyOp10
 70
     1
102
RTVSPropertyOp11
 70
     1
102
RTVSPropertyOp12
 70
     1
102
RTVSPropertyOp13
 70
     1
102
RTVSPropertyOp14
 70
     1
102
RTVSPropertyOp15
 70
     1
102
RTVSPropertyOp16
 70
     1
102
RTVSPropertyOp17
 70
     1
102
RTVSPropertyOp18
 70
     1
102
RTVSPropertyOp19
 70
     1
102
RTVSPropertyOp20
 70
     1
102
RTVSPropertyOp21
 70
     1
102
RTVSPropertyOp22
 70
     1
102
RTVSPropertyOp23
 70
     1
102
RTVSPropertyOp24
 70
     1
102
RTVSPropertyOp25
 70
     1
102
RTVSPropertyOp26
 70
     1
102
RTVSPropertyOp27
 70
     1
  0
XRECORD
  5
1AFD
102
{ACAD_REACTORS
330
1AFC
102
}
330
1AFC
100
AcDbXrecord
280
     1
102
RTVSPropertyOp0
 70
     1
102
RTVSPropertyOp1
 70
     1
102
RTVSPropertyOp2
 70
     1
102
RTVSPropertyOp3
 70
     1
102
RTVSPropertyOp4
 70
     1
102
RTVSPropertyOp5
 70
     1
102
RTVSPropertyOp6
 70
     1
102
RTVSPropertyOp7
 70
     1
102
RTVSPropertyOp8
 70
     1
102
RTVSPropertyOp9
 70
     1
102
RTVSPropertyOp10
 70
     1
102
RTVSPropertyOp11
 70
     1
102
RTVSPropertyOp12
 70
     1
102
RTVSPropertyOp13
 70
     1
102
RTVSPropertyOp14
 70
     1
102
RTVSPropertyOp15
 70
     1
102
RTVSPropertyOp16
 70
     1
102
RTVSPropertyOp17
 70
     1
102
RTVSPropertyOp18
 70
     1
102
RTVSPropertyOp19
 70
     1
102
RTVSPropertyOp20
 70
     1
102
RTVSPropertyOp21
 70
     1
102
RTVSPropertyOp22
 70
     1
102
RTVSPropertyOp23
 70
     1
102
RTVSPropertyOp24
 70
     1
102
RTVSPropertyOp25
 70
     1
102
RTVSPropertyOp26
 70
     1
102
RTVSPropertyOp27
 70
     1
  0
ENDSEC
  0
EOF
